Пригоди Тінтіна: Таємниця єдинорога / The Adventures of Tintin: The Secret of the Unicorn (2011) 720p-mini

Нові коментарі

Нова тема   Відповісти
Автор Повідомлення
Drool 
VIP


З нами з: 17.04.10
Востаннє: 20.08.17
Повідомлень: 1373

2012-03-19 12:07  
Пригоди Тінтіна: Таємниця єдинорога / The Adventures of Tintin: The Secret of the Unicorn (2011) 720p-mini

Жанр: анімація, комедія, пригоди
Країна: США, Новая Зеландія, Бельгія



Кіностудія / кінокомпанія: Sony Pictures
Режисер: Стівен Спілберг
Актори: Джеймі Белл, Деніел Крейг, Саймон Пегг, Кері Елвіс, Енді Серкіс, Нік Фрост, Маккензі Крук

Сюжет:
Неймовірний дует Стівена Спілберга та Пітера Джексона поєднав режисерські таланти та сучасні технології зйомок для того, щоб найреальніше відтворити пригоди легендарного репортера, майстра у розгадуванні загадок та спеціаліста у потрапляння в різноманітні історії, славетного Тінтіна. Попереду таємниця, розгадка якої обіцяє відкрити небачені скарби, та це не головне, адже небезпека та пригоди – ось заради чого він подорожує.


Тривалість: 01:46:51
Якість: 720p-mini
Відео:
кодек:
розмір кадру: 1280x544
бітрейт: 2755 кб/с

Аудіо:
мова: українська
переклад: професійний дубльований
кодек: 5.1
бітрейт: 384 кб/с

Джерело озвучення:
Info
General
Unique ID : 238137334838397826530306880326663768671 (0xB327951870CB5F308CC4C72475A18A5F)
Complete name : D:\Video\The.Adventures.of.Tintin.2011.D.Ukr..720p.
Format :
Format version : Version 2
File size : 2.39 GiB
Duration : 1h 46mn
Overall bit rate : 3 202 Kbps
Movie name : Пригоди Тінтіна: Таємниця єдинорога / The Adventures of Tintin: The Secret of the Unicorn (2011) 720p-mini (video from FireBit)
Encoded date : UTC 2012-03-19 08:19:39
Writing application : mkvmerge v3.4.0 ('Rapunzel') збірка від May 15 2010 09:38:20
Writing library : libebml v0.8.0 + libmatroska v0.9.0

Video
ID : 1
Format : AVC
Format/Info : Advanced Video Codec
Format profile : [email protected]
Format settings, CABAC : Yes
Format settings, ReFrames : 4 frames
Codec ID : V_MPEG4/ISO/AVC
Duration : 1h 46mn
Bit rate : 2 755 Kbps
Width : 1 280 pixels
Height : 544 pixels
Display aspect ratio : 2.35:1
Frame rate : 23.976 fps
Color space : YUV
Chroma subsampling : 4:2:0
Bit depth : 8 bits
Scan type : Progressive
Bits/(Pixel*Frame) : 0.165
Stream size : 2.06 GiB (86%)
Title : The Adventures of Tintin
Writing library : core 120 r2164 da19765
Encoding settings : cabac=1 / ref=4 / deblock=1:0:0 / analyse=0x3:0x113 / me=umh / subme=10 / psy=1 / psy_rd=0.40:0.05 / mixed_ref=1 / me_range=32 / chroma_me=1 / trellis=2 / 8x8dct=1 / cqm=0 / deadzone=21,11 / fast_pskip=0 / chroma_qp_offset=-3 / threads=9 / sliced_threads=0 / nr=0 / decimate=0 / interlaced=0 / bluray_compat=0 / constrained_intra=0 / bframes=8 / b_pyramid=2 / b_adapt=2 / b_bias=0 / direct=3 / weightb=1 / open_gop=0 / weightp=2 / keyint=240 / keyint_min=1 / scenecut=40 / intra_refresh=0 / rc_lookahead=40 / rc=crf / mbtree=1 / crf=18.0 / qcomp=0.60 / qpmin=10 / qpmax=51 / qpstep=4 / vbv_maxrate=40000 / vbv_bufsize=40000 / crf_max=0.0 / nal_hrd=none / ip_ratio=1.40 / aq=1:1.20
Default : Yes
Forced : No

Audio
ID : 2
Format : AC-3
Format/Info : Audio Coding 3
Mode extension : CM (complete main)
Codec ID : A_AC3
Duration : 1h 46mn
Bit rate mode : Constant
Bit rate : 384 Kbps
Channel(s) : 6 channels
Channel positions : Front: L C R, Side: L R, LFE
Sampling rate : 48.0 KHz
Bit depth : 16 bits
Compression mode : Lossy
Stream size : 294 MiB (12%)
Title : Ukrainian
Language : Ukrainian
Default : Yes
Forced : No
Скріншоти





Походження: Ріп від FireBit з видаленими англійською та російською доріжками
Особиста оцінка: 0 - не дивився


 Трекер:    Зареєстрований   

Завантажити / скачати мультфільм українською



відео для новачків



 Зареєстрований:   2012-03-19 12:07
 Розмір:   2.39 GB 
 Оцінка мультфільму:   9.9/10 (Голосів: 28)
   
matrix.dev 
Частий відвідувач


З нами з: 02.02.09
Востаннє: 08.01.17
Повідомлень: 29

2012-03-20 14:42  
Дуже дякую за роздачу. Дуже гарний та веселий мультфільм. Рідкість на даний час.
DerPartisan 
Свій


З нами з: 19.03.10
Востаннє: 10.08.17
Повідомлень: 62

2012-03-26 21:41  
Суперовий екшн подивились з задоволенням.
lasmen 
VIP


З нами з: 09.12.11
Востаннє: 11.08.13
Повідомлень: 625

2012-04-11 01:45  
шкода, не дочекався. вдруге важко дивитися.
Seriy100293 
VIP


З нами з: 17.08.11
Востаннє: 20.08.17
Повідомлень: 319

2012-09-08 22:16  
Колись мені однойменний мультсеріал дурним здавався... Мабуть, помилявся
I_Kostyan 
Новенький


З нами з: 05.11.12
Востаннє: 19.08.17
Повідомлень: 21

2017-06-04 21:05  
КЛАСНИЙ ПРИГОДНИЦЬКИЙ МУЛЬТФІЛЬМ!
Все просто - пригоди, пригоди і ще раз пригоди. Дивився, не відриваючись, від початку до кінця.
І що саме цікаве, ізюминкою цього мультфільму є незвична анімація (ніде не зустрічав таку. Якщо знаєте - підкажіть).

РЕКОМЕНДУЮ ДО ПЕРЕГЛЯДУ, тим хто цілком і повністю прагне поринути у вирій пригод.
8/10! (Однозначно в колекцію)

Drool 
VIP


З нами з: 17.04.10
Востаннє: 20.08.17
Повідомлень: 1373

2017-06-07 08:15  
I_Kostyan написано:
І що саме цікаве, ізюминкою цього мультфільму є незвична анімація (ніде не зустрічав таку. Якщо знаєте - підкажіть).
Не знаю, чи правда, але чув, що в цьому мульті оцифровані рухи живих акторів. І ще чув, що така ж техніка застосовувалась у "Мами застрягли на Марсі".
EvGaS 
Відео Гуртом - підтримка та поширення
Відео Гуртом - підтримка та поширення


З нами з: 27.02.12
Востаннє: 21.08.17
Повідомлень: 3332

2017-06-07 09:23  
I_Kostyan написано:
ізюминкою

Родзинка.

Drool написано:
Не знаю, чи правда, але чув, що в цьому мульті оцифровані рухи живих акторів. І ще чув, що така ж техніка застосовувалась у "Мами застрягли на Марсі".

В Мамах на Марсі застосовувався звичайний моушн капчур.

Ця технологія давно є поширеною. Фактично актор-акробат надягає маячки і вони фіксуються у просторі. Це й забезпечує людяність рухів майбутньої натягнутої на такий «каркас» рухів 3-д моделі.

Є ще й інший метод захоплення рухів, ротоскопія, коли відеозображення просто перемальовують поверх чи накладають фільтри. Але тут воно не використовувалось. В методи ротоскопа власні проблеми через сам процес, але він дозволяє передати правильні пропорції, обсяги, форми та рухи точніше за моушн капчур, бо останній можна уявити як шкелет чи панцир з поєданих як сузір’я точок, й звісно ж, інформація про об’єкт між точками не захоплюється. Але для 3-д моделей цього й не вимагається, вони мають власну геометрію, хіба що знову ж — головні точки лиця моделі та актора пов’яжуть з деякими змінами в геометрії, пов’язавши відповідні точки. Тут це й надало обличчям певної живості. Можна уявити десь як гумова маску натягнуту на робота з записаними емоційними рухами людей. Лице не є надто людським, але рухається в своїх межах рухів емоцій схоже на живу особу.

Принаймні, написав пояснення більш-менш так як його знаю.

Ваш часовий пояс: GMT + 2 Години

Нова тема   Відповісти