Кіт у чоботях / Puss in Boots (2011) 1080p Ukr/Eng | Sub Ukr/Eng | Ліцензія

Нові коментарі

Нова тема   Відповісти
Автор Повідомлення
Anonymous 







2012-03-18 21:28  
Кіт у чоботях / Puss in Boots (2011) 1080p Ukr/Eng | Sub Ukr/Eng | Ліцензія

Кіт у чоботях / Puss in Boots (2011) 1080p Ukr/Eng | Sub Ukr/Eng | ЛіцензіяКіт у чоботях / Puss in Boots (2011) 1080p Ukr/Eng | Sub Ukr/Eng | Ліцензія


Жанр: анімація, пригодницький, комедія
Країна: США



Кіностудія / кінокомпанія: DreamWorks Animation
Режисер: Кріс Міллер (Chris Miller)
Актори: Антоніо Бандерас (Antonio Banderas), Сальма Хаєк (Salma Hayek), Зак Галіфіанакіс (Zach Galifianakis), Біллі Боб Торнтон (Billy Bob Thornton), Емі Седаріс (Amy Sedaris), Констанс Мері (Constance Marie), Гільєрмо дель Торо (Guillermo del Toro), Річ Дітл (Rich Dietl), Райан Крего (Ryan Crego), Том Вілер (Tom Wheeler)

Сюжет:
Як і в кожного легендарного героя, у Кота було важке дитинство – ще немовлям він потрапив у дитячий притулок маленького іспанського (чи мексиканського?) містечка. Там Кіт зустрів яйце на ім'я Хитун Александр Бовтун, який ще у дитинстві склав хитрий план викрадення гуски, що несе золоті яйця. Допомогти у його здійсненні мали чарівні боби.

Друзі організували Бобовий клуб (головне правило якого – "нікому не розповідати про Бобовий клуб") і стали шукати способи наблизитися до своєї мрії. Згодом Кіт розпочав свій шлях народного героя та рятівника бабусь, а Бовтун, засліплений жадобою багатства, потрапив у в'язницю. Через сім років і вони знову возз'єдналися, аби згадати старі часи та вкрасти омріяну гуску. Допомагає їм у цьому красуня Кицька М'яколапка.

Пухнастий герой картини, мов справжній мачо-супермен, танцює, б'ється на шпагах, зваблює гарненьких киць, зачаровує своєю тваринною харизмою та від'їздить у захід сонця на баскому скакуні.


Тривалість: 01:30:14
Якість:
Відео:
кодек:
розмір кадру: 1920x814
бітрейт: 10.7 мб/с

Аудіо # 1:
мова: українська
переклад: професійний дубльований
кодек: 5.1
бітрейт: 640 кб/с

Аудіо # 2:
мова: англійська
переклад: оригінал
кодек: 5.1
бітрейт: 1510 кб/с

Джерело озвучення:


Субтитри:
мова: українська
тип: програмні (м'які)
формат: *.srt

Субтитри:
мова: англійська
тип: програмні (м'які)
формат: *.srt

Кіт у чоботях / Puss in Boots (2011) 720p Ukr/Eng | Sub Ukr/Eng | Ліцензія 3.47 GB

Info

Format :
File size : 8.29 GiB
Duration : 1h 30mn
Overall bit rate : 13.2 Mbps
Movie name : Puss in Boots (2011) 1080p Ukr.Eng Sub Ukr.Eng
Encoded date : UTC 2012-03-18 17:49:04
Writing application : mkvmerge v2.4.2 ('Oh My God') built on Jan 18 2009 17:30:28
Writing library : libebml v0.7.7 + libmatroska v0.8.1
Video #1
ID : 1
Format : AVC
Format/Info : Advanced Video Codec
Format profile : [email protected]
Format settings, CABAC : Yes
Format settings, ReFrames : 5 frames
Muxing mode : Container [email protected]
Codec ID : V_MPEG4/ISO/AVC
Duration : 1h 30mn
Bit rate : 10.7 Mbps
Nominal bit rate : 11.0 Mbps
Width : 1 920 pixels
Height : 814 pixels
Display aspect ratio : 2.35:1
Frame rate : 23.976 fps
Resolution : 24 bits
Colorimetry : 4:2:0
Scan type : Progressive
Bits/(Pixel*Frame) : 0.287
Stream size : 6.76 GiB (82%)
Writing library : core 120 r2164 da19765
Encoding settings : cabac=1 / ref=5 / deblock=1:-2:-2 / analyse=0x3:0x133 / me=umh / subme=10 / psy=1 / psy_rd=1.00:0.00 / mixed_ref=1 / me_range=64 / chroma_me=1 / trellis=2 / 8x8dct=1 / cqm=0 / deadzone=21,11 / fast_pskip=0 / chroma_qp_offset=-2 / threads=12 / sliced_threads=0 / nr=0 / decimate=0 / interlaced=0 / bluray_compat=0 / constrained_intra=0 / bframes=7 / b_pyramid=2 / b_adapt=2 / b_bias=0 / direct=3 / weightb=1 / open_gop=0 / weightp=2 / keyint=240 / keyint_min=24 / scenecut=40 / intra_refresh=0 / rc=2pass / mbtree=0 / bitrate=11000 / ratetol=1.0 / qcomp=0.70 / qpmin=0 / qpmax=69 / qpstep=4 / cplxblur=20.0 / qblur=0.5 / ip_ratio=1.45 / pb_ratio=1.20 / aq=1:1.30
Language : English
Audio #2
ID : 2
Format : AC-3
Format/Info : Audio Coding 3
Codec ID : A_AC3
Duration : 1h 30mn
Bit rate mode : Constant
Bit rate : 640 Kbps
Channel(s) : 6 channels
Channel positions : Front: L C R, Surround: L R, LFE
Sampling rate : 48.0 KHz
Stream size : 413 MiB (5%)
Language : Ukrainian
Audio #3
ID : 3
Format :
Format/Info : Digital Theater Systems
Codec ID : A_DTS
Duration : 1h 30mn
Bit rate mode : Constant
Bit rate : 1 510 Kbps
Channel(s) : 6 channels
Channel positions : Front: L C R, Surround: L R, LFE
Sampling rate : 48.0 KHz
Resolution : 24 bits
Video delay : 11ms
Stream size : 974 MiB (11%)
Language : English
Text #4
ID : 4
Format : UTF-8
Codec ID : S_TEXT/UTF8
Codec ID/Info : UTF-8 Plain Text
Language : Ukrainian
Text #5
ID : 5
Format : UTF-8
Codec ID : S_TEXT/UTF8
Codec ID/Info : UTF-8 Plain Text
Language : English
Скріншоти





Джерело:
Особиста оцінка: 9/10


 Трекер:    Зареєстрований   

Завантажити / скачати мультфільм українською



відео для новачків



 Зареєстрований:   2012-03-18 21:28
 Розмір:   8.29 GB 
 Оцінка мультфільму:   6.9/10 (Голосів: 34)
   
Інші релізи
ratbol 
Модератор HD


З нами з: 03.02.09
Востаннє: 20.08.17
Повідомлень: 1083

2012-03-18 22:10  
Гість написано:
11.0 мб/с


Гадаю бітрейт зависокий для 720р, у моїй роздачі 11.3 для 1080р

Anonymous 







2012-03-18 22:16  
ratbol написано:
Гадаю бітрейт зависокий для 720р, у моїй роздачі 11.3 для 1080р


це і є 1080p )

RomuG 
Новенький


З нами з: 18.03.12
Востаннє: 29.07.17
Повідомлень: 4

2012-03-18 22:30  
він не в 3D?
ratbol 
Модератор HD


З нами з: 03.02.09
Востаннє: 20.08.17
Повідомлень: 1083

2012-03-18 22:36  
Гість написано:
це і є 1080p )


Дивно, не знаю як, але я не замітив

А взагалі то я планував оновити свій реліз доріжкою 640 кбіт, тому варто спочатку питати релізерів чи вони не планують оновлень

braveboy 
Відео Гуртом - команда HD
Відео Гуртом - команда HD


З нами з: 15.06.10
Востаннє: 13.08.17
Повідомлень: 949

2012-03-18 23:59  
Гість тут ж ясно написано
Гість написано:

Info
Bit rate : 10.7 Mbps


чому в описі
Гість написано:
бітрейт: 11.0 мб/с

Anonymous 







2012-03-19 00:02  
braveboy
пишеться
Гість написано:

Info
Nominal bit rate : 11.0 Mbps

braveboy 
Відео Гуртом - команда HD
Відео Гуртом - команда HD


З нами з: 15.06.10
Востаннє: 13.08.17
Повідомлень: 949

2012-03-19 00:34  
Гість написано:

braveboy
пишеться
Гість написано:

Info
Nominal bit rate : 11.0 Mbps


чому?

DiGen 
Модератор HD та координатор Команди HD
Модератор HD та координатор Команди HD


З нами з: 12.11.09
Востаннє: 24.06.13
Повідомлень: 1451

2012-03-19 00:40  
Гість, має бути
braveboy написано:
Bit rate : 10.7 Mbps

braveboy 
Відео Гуртом - команда HD
Відео Гуртом - команда HD


З нами з: 15.06.10
Востаннє: 13.08.17
Повідомлень: 949

2012-03-19 00:54  
Гість
Nominal bit rate це максимальний бітрейт який був досягнутий в процесі кодування (VBR)

Elrond 
Свій


З нами з: 27.10.07
Востаннє: 16.07.16
Повідомлень: 118

2012-04-11 11:57  
300 Кб/с з моїх 9000 Кб/с це несерйозно.
bot 
робот


З нами з: 30.09.07
Востаннє: 26.05.05
Повідомлень: 17413

2012-09-21 14:28  
Тему перенесено з Мультфільми в HD до форуму Неоформлене відео


urij546724

Ваш часовий пояс: GMT + 2 Години

Нова тема   Відповісти