Пригоди Тінтіна: Таємниця єдинорога / The Adventures of Tintin: The Secret of the Unicorn (2011) 1080p Ukr/Eng | Sub Eng

Нові коментарі

Нова тема   Відповісти
Автор Повідомлення
ratbol 
Модератор HD


З нами з: 03.02.09
Востаннє: 19.08.17
Повідомлень: 1083

2012-03-18 19:46  
Пригоди Тінтіна: Таємниця єдинорога / The Adventures of Tintin: The Secret of the Unicorn (2011) 1080p Ukr/Eng | Sub Eng


« This year, discover how far adventure will take you. »


Жанр: анімація, комедія, пригоди
Країна: США, Новая Зеландія, Бельгія



Кіностудія / кінокомпанія: Sony Pictures
Режисер: Стівен Спілберг
Актори: Джеймі Белл (Jamie Bell), Деніел Крейг (Daniel Craig), Саймон Пегг (Simon Pegg), Кері Елвіс (Cary Elwes), Енді Серкіс (Andy Serkis), Нік Фрост(Nick Frost), Маккензі Крук (Mackenzie Crook) та інші.

Сюжет:
Неймовірний дует Стівена Спілберга та Пітера Джексона поєднав режисерські таланти та сучасні технології зйомок для того, щоб найреальніше відтворити пригоди легендарного репортера, майстра у розгадуванні загадок та спеціаліста у потрапляння в різноманітні історії, славетного Тінтіна. Попереду таємниця, розгадка якої обіцяє відкрити небачені скарби, та це не головне, адже небезпека та пригоди – ось заради чого він подорожує.


Тривалість: 01:46:52
Якість: 1080p [DON]
Відео:
кодек:
розмір кадру: 1920 х 816
бітрейт: 10.3 Мбіт/с

Аудіо # 1:
мова: українська
переклад: професійний дубльований
кодек: 5.1
бітрейт: 640 Кбіт/с

Аудіо # 2:
мова: англійська
переклад: оригінал
кодек: 5.1
бітрейт: 1510 Кбіт/с

Джерело озвучення:


Субтитри:
мова: англійська
тип: програмні (м'які)
формат: *.srt


Збережено оригінальні розділи як на Blu-Ray



Info
Код:
General
Unique ID                        : 249083053393274735049315031106323548698 (0xBB63A6AF99BB7E6F964BCAC033210A1A)
Complete name                    : \\Mediaserver\e\Cartoons\Пригоди Тінтіна. Таємниця єдинорога [The Adventures of Tintin. The Secret of the Unicorn] (2011) 1080p [Hurtom].
Format                           :
Format version                   : Version 2
File size                        : 10.0 GiB
Duration                         : 1h 46mn
Overall bit rate                 : 13.4 Mbps
Movie name                       : The Adventures of Tintin: The Secret of the Unicorn (2011)
Encoded date                     : UTC 2012-03-21 23:52:31
Writing application              : mkvmerge v5.4.0 ('Piper') built on Mar 10 2012 13:34:39
Writing library                  : libebml v1.2.3 + libmatroska v1.3.0

Video
ID                               : 1
Format                           : AVC
Format/Info                      : Advanced Video Codec
Format profile                   : [email protected]
Format settings, CABAC           : Yes
Format settings, ReFrames        : 5 frames
Codec ID                         : V_MPEG4/ISO/AVC
Duration                         : 1h 46mn
Bit rate                         : 11.3 Mbps
Width                            : 1 920 pixels
Height                           : 816 pixels
Display aspect ratio             : 2.35:1
Frame rate mode                  : Constant
Frame rate                       : 23.976 fps
Color space                      : YUV
Chroma subsampling               : 4:2:0
Bit depth                        : 8 bits
Scan type                        : Progressive
Bits/(Pixel*Frame)               : 0.300
Stream size                      : 8.22 GiB (82%)
Title                            : Encoded by DON
Writing library                  : core 120 r2164 da19765
Encoding settings                : cabac=1 / ref=5 / deblock=1:-1:-1 / analyse=0x3:0x133 / me=tesa / subme=10 / psy=1 / psy_rd=1.05:0.05 / mixed_ref=1 / me_range=32 / chroma_me=1 / trellis=2 / 8x8dct=1 / cqm=0 / deadzone=21,11 / fast_pskip=0 / chroma_qp_offset=-3 / threads=12 / sliced_threads=0 / nr=0 / decimate=1 / interlaced=0 / bluray_compat=0 / constrained_intra=0 / bframes=8 / b_pyramid=2 / b_adapt=2 / b_bias=0 / direct=1 / weightb=1 / open_gop=0 / weightp=2 / keyint=250 / keyint_min=23 / scenecut=40 / intra_refresh=0 / rc_lookahead=40 / rc=2pass / mbtree=1 / bitrate=11277 / ratetol=1.0 / qcomp=0.75 / qpmin=0 / qpmax=51 / qpstep=4 / cplxblur=20.0 / qblur=0.5 / ip_ratio=1.40 / aq=1:0.60
Language                         : English
Default                          : Yes
Forced                           : No

Audio #1
ID                               : 2
Format                           : AC-3
Format/Info                      : Audio Coding 3
Mode extension                   : CM (complete main)
Codec ID                         : A_AC3
Duration                         : 1h 46mn
Bit rate mode                    : Constant
Bit rate                         : 640 Kbps
Channel(s)                       : 6 channels
Channel positions                : Front: L C R, Side: L R, LFE
Sampling rate                    : 48.0 KHz
Bit depth                        : 16 bits
Compression mode                 : Lossy
Stream size                      : 489 MiB (5%)
Title                            : 5.1 [640 Kbps] - дубляж, Blu-Ray
Language                         : Ukrainian
Default                          : Yes
Forced                           : No

Audio #2
ID                               : 3
Format                           :
Format/Info                      : Digital Theater Systems
Codec ID                         : A_DTS
Duration                         : 1h 46mn
Bit rate mode                    : Constant
Bit rate                         : 1 510 Kbps
Channel(s)                       : 6 channels
Channel positions                : Front: L C R, Side: L R, LFE
Sampling rate                    : 48.0 KHz
Bit depth                        : 16 bits
Compression mode                 : Lossy
Stream size                      : 1.13 GiB (11%)
Title                            : 5.1 [1 536 Kbps]
Language                         : English
Default                          : No
Forced                           : No

Text
ID                               : 4
Format                           : UTF-8
Codec ID                         : S_TEXT/UTF8
Codec ID/Info                    : UTF-8 Plain Text
Language                         : English
Default                          : No
Forced                           : No

Menu
00:00:00.000                     : en:00:00:00.000
00:05:39.297                     : en:00:05:39.297
00:12:12.315                     : en:00:12:12.315
00:17:11.364                     : en:00:17:11.364
00:25:36.869                     : en:00:25:36.869
00:32:37.581                     : en:00:32:37.581
00:37:55.315                     : en:00:37:55.315
00:42:29.839                     : en:00:42:29.839
00:50:52.508                     : en:00:50:52.508
00:56:27.217                     : en:00:56:27.217
01:02:19.611                     : en:01:02:19.611
01:11:58.981                     : en:01:11:58.981
01:20:03.966                     : en:01:20:03.966
01:27:30.996                     : en:01:27:30.996
01:34:12.814                     : en:01:34:12.814
01:40:30.483                     : en:01:40:30.483







Джерело:


 Трекер:    Зареєстрований   

Завантажити / скачати мультфільм українською



відео для новачків



 Зареєстрований:   2012-03-22 04:10
 Розмір:   10.02 GB 
 Оцінка мультфільму:   9.8/10 (Голосів: 21)
   
sem braun 
Новенький


З нами з: 26.07.10
Востаннє: 12.08.17
Повідомлень: 3

2012-03-18 23:19  
дочекався, дякую!!!
ratbol 
Модератор HD


З нами з: 03.02.09
Востаннє: 19.08.17
Повідомлень: 1083

2012-03-22 04:16  
Дадано українську доріжку 640 Кбіт, з сабами аналогічна ситуація як і тут: https://toloka.to/t34331
сам вантажив BD на 43гб

vlad_k1da 
Новенький


З нами з: 23.09.11
Востаннє: 22.07.16
Повідомлень: 5

2012-04-01 15:44  
будемо чекати продовження мультфільма...неоднозначний натяк вкінці дає надію на ще цікавіші пригоди Happy
BMK12 
Відео Гуртом - підтримка та поширення
Відео Гуртом - підтримка та поширення


З нами з: 13.04.09
Востаннє: 19.08.17
Повідомлень: 3110

2013-11-08 00:36  
Дуже цікавий і пригодницький мультфільм. Гарно зроблений.
Ваш часовий пояс: GMT + 2 Години

Нова тема   Відповісти