Монстри проти чужих / Monsters vs Aliens (2009) 1080p Ukr/Eng | Sub Ukr/Eng

Нові коментарі

Нова тема   Відповісти
Автор Повідомлення
ratbol 
Модератор HD


З нами з: 03.02.09
Востаннє: 20.08.17
Повідомлень: 1083

2012-03-15 17:16  
Монстри проти чужих / Monsters vs Aliens (2009) 1080p Ukr/Eng | Sub Ukr/Eng

Монстри проти чужих / Monsters vs Aliens (2009) 1080p Ukr/Eng | Sub Ukr/Eng


Жанр: анімація, фантастика, бойовик, комедія
Країна: США



Кіностудія / кінокомпанія: DreamWorks Animation
Режисер: Роб Леттерман, Конрад Вернон
Актори: Різ Уізерспун, Сет Роген, Х'ю Лорі, Уілл Арнетт, Кіфер Сазерленд, Рейн Вілсон, Стефен Колбер, Пол Радд, Джулі Уайт, Джефрі Тембор

Сюжет:
В день весілля на Сьюзан Мерфі потрапляє пил з метеорита і вона виростає до 15 метрів! Природно, що військові відчули загрозу і поспішили ізолювати її в секретному урядовому секторі. Там їй дали інше ім'я - Гігантика - і познайомили з групою монстрів, яких утримували в цьому ж секторі. Серед монстрів були: геніальний вчений, щоправда, з головою комахи, доктор наук, професор Тарган , мавпориб з характером справжнього мачо - Відсутня Ланка , драглистий незнищенний Б.О.Б. , а також стометрова личинка на ім’я Комахозавр.
Але їх нудному існуванню приходить кінець, коли на Землю приземляється іншопланетний робот і починає наводити страх на її мешканців. У розпачі Президент приймає рішення використати монстрів для боротьби з прибульцями і порятунку планети…


Тривалість: 01:34:21
Якість: 1080p [HDC]
Відео:
кодек:
розмір кадру: 1920 х 818
бітрейт: 5 996 Кбіт/с

Аудіо # 1:
мова: українська
переклад: професійний дубльований
кодек: 5.1
бітрейт: 640 Кбіт/с

Аудіо # 2:
мова: англійська
переклад: оригінал
кодек: 5.1
бітрейт: 1510 Кбіт/с

Аудіо # 3:
мова: англійська
переклад: коментарі
кодек: OGG 2.0
бітрейт: 80 Кбіт/с

Джерело озвучення:


Субтитри # 1:
мова: українська
тип: програмні (м'які)
формат: *.srt

Субтитри # 2:
мова: англійська
тип: програмні (м'які)
формат: *.ass

Субтитри # 3:
мова: англійська (коментарі)
тип: програмні (м'які)
формат: *.ass


Збережено оригінальні чаптери як на Blu-Ray


Info
Код:
General
Unique ID                        : 231478150500396910297396560227206906254 (0xAE2511F57B683EF08403EB1F2E7B418E)
Complete name                    : E:\Монстри проти чужих\Монстри проти чужих [Monsters vs Aliens] (2009) 1080p [Hurtom].
Format                           :
Format version                   : Version 2
File size                        : 5.37 GiB
Duration                         : 1h 34mn
Overall bit rate mode            : Variable
Overall bit rate                 : 8 151 Kbps
Movie name                       : Monsters vs Aliens (2009)
Encoded date                     : UTC 2012-03-15 13:25:23
Writing application              : mkvmerge v3.2.0 ('Beginnings') built on Feb 12 2010 16:46:17
Writing library                  : libebml v0.7.9 + libmatroska v0.8.1

Video
ID                               : 1
Format                           : AVC
Format/Info                      : Advanced Video Codec
Format profile                   : [email protected]
Format settings, CABAC           : Yes
Format settings, ReFrames        : 5 frames
Format settings, GOP             : N=1
Codec ID                         : V_MPEG4/ISO/AVC
Duration                         : 1h 34mn
Bit rate                         : 5 996 Kbps
Width                            : 1 920 pixels
Height                           : 818 pixels
Display aspect ratio             : 2.35:1
Frame rate                       : 23.976 fps
Color space                      : YUV
Chroma subsampling               : 4:2:0
Bit depth                        : 8 bits
Scan type                        : Progressive
Bits/(Pixel*Frame)               : 0.159
Stream size                      : 3.80 GiB (71%)
Title                            : HDC
Writing library                  : core 72 r1235M 448b138
Encoding settings                : cabac=1 / ref=5 / deblock=1:-3:-3 / analyse=0x3:0x113 / me=umh / subme=9 / psy=1 / psy_rd=0.8:0.0 / mixed_ref=1 / me_range=24 / chroma_me=1 / trellis=2 / 8x8dct=1 / cqm=0 / deadzone=21,11 / chroma_qp_offset=-2 / threads=6 / nr=0 / decimate=1 / mbaff=0 / bframes=3 / b_pyramid=0 / b_adapt=2 / b_bias=0 / direct=3 / wpredb=1 / keyint=250 / keyint_min=25 / scenecut=40 / rc_lookahead=50 / rc=2pass / mbtree=1 / bitrate=5996 / ratetol=1.0 / qcomp=0.60 / qpmin=10 / qpmax=51 / qpstep=4 / cplxblur=20.0 / qblur=0.5 / vbv_maxrate=50000 / vbv_bufsize=50000 / ip_ratio=1.40 / aq=1:0.80
Language                         : English
Default                          : Yes
Forced                           : No

Audio #1
ID                               : 2
Format                           : AC-3
Format/Info                      : Audio Coding 3
Mode extension                   : CM (complete main)
Codec ID                         : A_AC3
Duration                         : 1h 34mn
Bit rate mode                    : Constant
Bit rate                         : 640 Kbps
Channel(s)                       : 6 channels
Channel positions                : Front: L C R, Side: L R, LFE
Sampling rate                    : 48.0 KHz
Bit depth                        : 16 bits
Compression mode                 : Lossy
Stream size                      : 432 MiB (8%)
Title                            : 5.1 [384 Kbps] - дубляж, Blu-Ray
Language                         : Ukrainian
Default                          : Yes
Forced                           : No

Audio #2
ID                               : 3
Format                           :
Format/Info                      : Digital Theater Systems
Codec ID                         : A_DTS
Duration                         : 1h 34mn
Bit rate mode                    : Constant
Bit rate                         : 1 510 Kbps
Channel(s)                       : 6 channels
Channel positions                : Front: L C R, Side: L R, LFE
Sampling rate                    : 48.0 KHz
Bit depth                        : 24 bits
Compression mode                 : Lossy
Stream size                      : 1 019 MiB (19%)
Title                            : 5.1 [1 536 Kbps]
Language                         : English
Default                          : No
Forced                           : No

Audio #3
ID                               : 4
Format                           : Vorbis
Format settings, Floor           : 1
Codec ID                         : A_VORBIS
Duration                         : 1h 34mn
Bit rate mode                    : Variable
Bit rate                         : 80.0 Kbps
Channel(s)                       : 2 channels
Sampling rate                    : 48.0 KHz
Compression mode                 : Lossy
Stream size                      : 54.0 MiB (1%)
Title                            : OGG 2.0 [80 Kbps] - коментарі
Writing library                  : aoTuV b5c  (UTC 2008-12-15)
Language                         : English
Default                          : No
Forced                           : No

Text #1
ID                               : 5
Format                           : UTF-8
Codec ID                         : S_TEXT/UTF8
Codec ID/Info                    : UTF-8 Plain Text
Language                         : Ukrainian
Default                          : No
Forced                           : No

Text #2
ID                               : 6
Format                           : ASS
Codec ID                         : S_TEXT/ASS
Codec ID/Info                    : Advanced Sub Station Alpha
Compression mode                 : Lossless
Language                         : English
Default                          : No
Forced                           : No

Text #3
ID                               : 7
Format                           : ASS
Codec ID                         : S_TEXT/ASS
Codec ID/Info                    : Advanced Sub Station Alpha
Compression mode                 : Lossless
Title                            : коментарі
Language                         : English
Default                          : No
Forced                           : No

Menu
00:00:00.000                     : en:00:00:00.000
00:05:08.934                     : en:00:05:08.934
00:07:39.501                     : en:00:07:39.501
00:11:01.995                     : en:00:11:01.995
00:17:36.097                     : en:00:17:36.097
00:20:36.902                     : en:00:20:36.902
00:24:10.407                     : en:00:24:10.407
00:28:20.741                     : en:00:28:20.741
00:32:41.960                     : en:00:32:41.960
00:35:10.483                     : en:00:35:10.483
00:38:59.420                     : en:00:38:59.420
00:41:51.384                     : en:00:41:51.384
00:46:47.096                     : en:00:46:47.096
00:50:10.257                     : en:00:50:10.257
00:55:48.053                     : en:00:55:48.053
00:59:38.158                     : en:00:59:38.158
01:03:24.134                     : en:01:03:24.134
01:06:38.244                     : en:01:06:38.244
01:08:38.281                     : en:01:08:38.281
01:14:00.353                     : en:01:14:00.353
01:16:55.569                     : en:01:16:55.569
01:18:10.227                     : en:01:18:10.227
01:21:38.393                     : en:01:21:38.393
01:25:10.105                     : en:01:25:10.105
Скріншоти




Джерело: &
Особиста оцінка: 8 - мені сподобалося


 Трекер:    Зареєстрований   

Завантажити / скачати мультфільм українською



відео для новачків



 Зареєстрований:   2012-03-15 17:16
 Розмір:   5.37 GB 
 Оцінка мультфільму:   10/10 (Голосів: 5)
   
Ваш часовий пояс: GMT + 2 Години

Нова тема   Відповісти