Фантастичний містер Лис / Fantastic Mr. Fox (2009) 1080p Ukr/Eng | Sub Multi

Нові коментарі

Нова тема   Відповісти
Автор Повідомлення
ratbol 
Модератор HD


З нами з: 03.02.09
Востаннє: 19.08.17
Повідомлень: 1083

2012-03-12 11:56  
Фантастичний містер Лис / Fantastic Mr. Fox (2009) 1080p Ukr/Eng | Sub Multi


« Dig the life fantastic »


Жанр: анімація, пригоди, комедія
Країна: США



Кіностудія / кінокомпанія: Twentieth Century Fox Film Corporation, Indian Paintbrush, Regency Enterprises
Режисер: Вес Андерсон
Актори: Джордж Клуні, Меріл Стріп, Джейсон Шварцман, Білл Мюррей, Воллес Володарскі, Ерік Чейз Андерсон, Майкл Гембон та інші
Вікові обмеження: 12+

Сюжет:
Розлючені фермери, втомлені від постійних нападів "хитрого лиса" на курники, готуються знищити свого ворога та його "хитру" родину. Що вийде з цього протистояння ...


Тривалість: 01:26:44
Якість: 1080p
Відео:
кодек:
розмір кадру: 1920 х 1038
бітрейт: 8000 кб/с

Аудіо # 1:
мова: українська
переклад: двоголосий закадровий | Новий канал
кодек: 5.1
бітрейт: 448 кб/с

Аудіо # 2:
мова: англійська
переклад: оригінал
кодек: 5.1
бітрейт: 1510 кб/с

Субтитри:
мова: англійська, французька, іспанська, португальська
тип: програмні (м'які)
формат: *.srt

Оригінальні розділи:
Збережено

Info
General

Unique ID : 186902944861356062244820430564854825508 (0x8C9C32A4594D438485A2E85C1F1B8224)
Complete name : E:\Фантастичний містер Лис\Фантастичний містер Лис [Fantastic Mr. Fox] (2009) 1080p [Hurtom].
Format :
Format version : Version 2
File size : 6.04 GiB
Duration : 1h 26mn
Overall bit rate : 9 965 Kbps
Movie name : Fantastic Mr. Fox (2009) - Release for Hurtom
Encoded date : UTC 2012-03-12 08:39:54
Writing application : mkvmerge v3.2.0 ('Beginnings') built on Feb 12 2010 16:46:17
Writing library : libebml v0.7.9 + libmatroska v0.8.1

Video
ID : 1
Format : AVC
Format/Info : Advanced Video Codec
Format profile : [email protected]
Format settings, CABAC : Yes
Format settings, ReFrames : 3 frames
Codec ID : V_MPEG4/ISO/AVC
Duration : 1h 26mn
Bit rate : 8 000 Kbps
Width : 1 920 pixels
Height : 1 038 pixels
Display aspect ratio : 1.850
Frame rate : 23.976 fps
Color space : YUV
Chroma subsampling : 4:2:0
Bit depth : 8 bits
Scan type : Progressive
Bits/(Pixel*Frame) : 0.167
Stream size : 4.73 GiB (78%)
Title : CtrlHD
Writing library : core 85 r1442 781d300
Encoding settings : cabac=1 / ref=3 / deblock=1:-3:-3 / analyse=0x3:0x133 / me=umh / subme=10 / psy=1 / psy_rd=1.00:0.25 / mixed_ref=1 / me_range=64 / chroma_me=1 / trellis=2 / 8x8dct=1 / cqm=0 / deadzone=21,11 / fast_pskip=0 / chroma_qp_offset=-4 / threads=12 / sliced_threads=0 / nr=0 / decimate=0 / mbaff=0 / constrained_intra=0 / bframes=3 / b_pyramid=0 / b_adapt=2 / b_bias=0 / direct=3 / wpredb=1 / wpredp=2 / keyint=240 / keyint_min=24 / scenecut=40 / intra_refresh=0 / rc_lookahead=60 / rc=2pass / mbtree=1 / bitrate=8000 / ratetol=3.0 / qcomp=0.80 / qpmin=10 / qpmax=51 / qpstep=4 / cplxblur=20.0 / qblur=0.5 / vbv_maxrate=40000 / vbv_bufsize=30000 / ip_ratio=1.10 / aq=1:1.00
Language : English
Default : Yes
Forced : No

Audio #1
ID : 2
Format : AC-3
Format/Info : Audio Coding 3
Mode extension : CM (complete main)
Codec ID : A_AC3
Duration : 1h 26mn
Bit rate mode : Constant
Bit rate : 448 Kbps
Channel(s) : 6 channels
Channel positions : Front: L C R, Side: L R, LFE
Sampling rate : 48.0 KHz
Bit depth : 16 bits
Compression mode : Lossy
Stream size : 278 MiB (4%)
Title : 5.1 [448 Kbps] - двоголосий закадровий, Новий канал
Language : Ukrainian
Default : Yes
Forced : No

Audio #2
ID : 3
Format :
Format/Info : Digital Theater Systems
Codec ID : A_DTS
Duration : 1h 26mn
Bit rate mode : Constant
Bit rate : 1 510 Kbps
Channel(s) : 6 channels
Channel positions : Front: L C R, Side: L R, LFE
Sampling rate : 48.0 KHz
Bit depth : 24 bits
Compression mode : Lossy
Stream size : 937 MiB (15%)
Title : 5.1 [1 536 Kbps]
Language : English
Default : No
Forced : No

Text #1
ID : 4
Format : UTF-8
Codec ID : S_TEXT/UTF8
Codec ID/Info : UTF-8 Plain Text
Language : English
Default : No
Forced : No

Text #2
ID : 5
Format : UTF-8
Codec ID : S_TEXT/UTF8
Codec ID/Info : UTF-8 Plain Text
Language : French
Default : No
Forced : No

Text #3
ID : 6
Format : UTF-8
Codec ID : S_TEXT/UTF8
Codec ID/Info : UTF-8 Plain Text
Language : Spanish
Default : No
Forced : No

Text #4
ID : 7
Format : UTF-8
Codec ID : S_TEXT/UTF8
Codec ID/Info : UTF-8 Plain Text
Language : Portuguese
Default : No
Forced : No

Menu
00:00:00.000 : en:1. Main Title / Trapped!
00:04:30.353 : en:2. Living in a Hole
00:06:35.729 : en:3. Just Buy the Tree
00:09:59.974 : en:4. Unwelcome Houseguest
00:14:35.875 : en:5. One Last Big Job
00:17:00.811 : en:6. Master Plan
00:21:22.072 : en:7. Whack-Bat
00:23:56.894 : en:8. Bean's Secret Cider Cellar
00:30:15.605 : en:9. Tails Don't Grow Back
00:32:31.950 : en:10. Dig!
00:36:20.011 : en:11. No Ticks, No Lice
00:38:27.055 : en:12. The Siege Begins
00:41:56.556 : en:13. Triple Header
00:45:30.770 : en:14. Ash's Brilliant Brainstorm
00:49:23.210 : en:15. Apple Juice Flood
00:51:50.899 : en:16. Waving the White Flag
00:54:45.365 : en:17. Redemption
00:58:33.301 : en:18. Going for Broke
01:01:19.342 : en:19. On Fire
01:05:44.941 : en:20. Rescue Mission
01:11:15.730 : en:21. Less Than a Slice of Bread
01:14:22.917 : en:22. What a Beautiful Creature
01:15:54.925 : en:23. A Good Toast
01:20:00.462 : en:24. Let Her Dance / End Titles
Скріншоти





Цитата:
За запис сирого звуку подяка xslim та akon111
За зведення доріжки подяка MutuLI


Джерело: &


 Трекер:    Зареєстрований   

Завантажити / скачати мультфільм українською



відео для новачків



 Зареєстрований:   2012-03-12 11:56
 Розмір:   6.04 GB 
 Оцінка мультфільму:   9.7/10 (Голосів: 18)
   
Genek 
Свій


З нами з: 16.10.10
Востаннє: 19.08.17
Повідомлень: 69

2012-03-12 20:06  
Гарний мультик. Історія цікава, з гумором, і анімація відмінна.
100lyar 
Новенький


З нами з: 09.03.09
Востаннє: 12.08.17
Повідомлень: 12

2012-03-15 23:03  
Супер Happy Такої класної анімації ще не бачив у подібного типу мультфільмів. А оригінальна озвучка настільки класно виконана, що просто дивився на одному подиху. Дуже сподобався %)

Між іншим, ось невеличкий Making Of. Як на мене, вражає Wide grin
http://www.youtube.com/watch?feature=player_detailpage&v=O0drdslGnUE

Джерх 
Свій


З нами з: 17.03.12
Востаннє: 16.08.17
Повідомлень: 107

2012-03-28 10:28  
Геніальний мульт.
mmmman 
Частий відвідувач


З нами з: 01.08.09
Востаннє: 18.08.17
Повідомлень: 43

2012-04-04 07:51  
солодкуватий голос Клуні на 100% вписався до образу лиса
мульт є одним з прикладів, де в дубляжу немає необхідності

hetzendorf 
Відео Гуртом - підтримка та поширення
Відео Гуртом - підтримка та поширення


З нами з: 23.07.15
Востаннє: 19.08.17
Повідомлень: 402

2017-01-28 01:18  
Непоганий мульт, але не більше того, суто на раз подивитися. А міг би стати просто чудовим, якби не всі ці потуги Веса Андерсена перепоганити його на артхаос. Авжеж, він аж зі штанів вистрибував, і це протягом усієї картини яскраво відчувається! Але як би там не було, йому це не вдалося, і це чудово! Цілісний сюжет, доцільна зрозуміла ідея, що чудово розкрита, вдала постановка — усе разом утримує увагу та не дає артхаосу жодного шансу. І навіть прибацане дурнувате музло не в змозі зіпсувати враження від перегляду.
6/10

Mr.Aruy 
Новенький


З нами з: 05.01.11
Востаннє: 17.08.17
Повідомлень: 6

2017-02-25 00:43  
а де ж українські субтитри?(
tiaro 
Новенький


З нами з: 01.11.15
Востаннє: 18.08.17
Повідомлень: 14

2017-02-25 02:27  
дуже незвичайна робота. Аж до того, що мене зачепив піл час перебування у Швейцарії і я його частково подивився там, не розуміючи мови
Ваш часовий пояс: GMT + 2 Години

Нова тема   Відповісти