Обличчя української історії (2010)

Нові коментарі

Нова тема   Відповісти
Автор Повідомлення
ZAshiTe 
Частий відвідувач


З нами з: 23.11.11
Востаннє: 19.01.14
Повідомлень: 32

2012-03-10 17:33  
Обличчя української історії (2010)

Обличчя української історії (2010)


Жанр: Документальний
Країна: Україна

Телеканал / кіностудія: Перший національний
Сюжет:
Проект "Обличчя української історії" нагадає глядачам про ті видатні історичні постаті, які залишили свій важливий внесок в історії і стали легендами для кожного українця.
Мова піде про таких значущих українців, як Пилип Орлик, Княгиня Ольга, Богдан Хмельницький, Петро Сагайдачний, Ярослав Мудрий та багатьох інших українців, чиє ім’я навіки закарбувалося на сторінках історії України та в пам’яті усіх поколінь українців, для яких "держава" - не просто слово, що позначає цілісність території.


Перелік серій
1 Обличчя української історії. Петро Сагайдачний (1570-1622)
2 Обличчя української історії.Микола Гоголь
3 Обличчя української історії.Григорій Сковорода
4 Обличчя української історії. Тарас Шевченко
5 Обличчя української історії. Богдан Хмельницький.
6 Обличчя української історії. Пилип Орлик.
7 Обличчя української історії.Іван Франко.
8 Обличчя української історії. Катерина Білокур.
9 Обличчя української історії.Михайло Грушевський.
10 Обличчя української історії. Володимир Івасюк.
11 Обличчя української історії. Олександр Довженко.
12 Обличчя української історії.Ярослав Мудрий.
13 Обличчя української історії. Степан Бандера.
14 Обличчя української історії.Леся Українка.
15 Обличчя української історії. Княгиня Ольга.
16 Обличчя української історії. Іван Миколайчук.
17 Обличчя української історії. Микола Амосов.
18 Обличчя української історії.Валерій Лобановський.
19 Обличчя української історії. В'ячеслав Чорновіл.
20 Обличчя української історії. Євген Патон.


Тривалість: ~00:05:00 одна серія
Відео:
кодек:
розмір кадру: 480 х 360
бітрейт: 599 кб/с

Аудіо:
мова: українська
переклад: оригінал
кодек: MP3
бітрейт: 96 кб/с

Скріншоти


Особиста оцінка: 10 - без зайвих вагань рекомендую всім!


Золотий реліз (завантажене не впливає на рейтинг)
 Трекер:    Зареєстрований   

Завантажити / скачати фільм українською



відео для новачків



 Зареєстрований:   2012-03-10 17:33
 Розмір:   575 MB 
 Оцінка фільму:   9.7/10 (Голосів: 33)
   
Henprokuror 
Свій


З нами з: 16.11.10
Востаннє: 14.10.17
Повідомлень: 64

2012-03-10 19:05  
Так це 5 хвилин займає 575 мб?
ZAshiTe 
Частий відвідувач


З нами з: 23.11.11
Востаннє: 19.01.14
Повідомлень: 32

2012-03-10 19:32  
5 хвилин це одна серія
VMaslo 
Новенький


З нами з: 01.07.11
Востаннє: 19.07.17
Повідомлень: 3

2012-03-10 20:29  
велике спасибі.
Kitler 
Модератор програмного забезпечення


З нами з: 22.04.11
Востаннє: 18.10.17
Повідомлень: 591

2012-03-10 21:09  
ZAshiTe написано:
5 хвилин це одна серія
Тоді потрібно вказати перелік всіх серій.
І назву за правилами оформи.

neseniuk 
Поважний учасник


З нами з: 19.11.08
Востаннє: 25.09.17
Повідомлень: 160

2012-03-10 22:22  
за допомогою якого програвача можна подивитися такий тип файлу?
Kitler 
Модератор програмного забезпечення


З нами з: 22.04.11
Востаннє: 18.10.17
Повідомлень: 591

2012-03-10 22:29  
neseniuk, за допомогою GOM Player можна
Hentaihunter 
VIP


З нами з: 16.08.08
Востаннє: 18.10.17
Повідомлень: 2375

2012-03-11 10:42  
Хто хоче завантажити оригінальне оригінальне неперекодоване відео “Облич української історії” робимо наступне:
1. Запускаємо інтернет-оглядач Opera і заходимо на офсайт Першого національного 1tv.com.ua
2. Клацаємо Сторінка – Інструменти розробника – Opera Dragonfly
3. Запускаємо відео та знаходимо посилання на нього у коді сторінки (рядок підменю “application/x-shockwave-flash”)
4. Розкриваємо підменю, знаходимо рядок “flashvars”
5. Копіюємо необхідний нам уривок адреси, що починається http://1tv.com.ua... і закінчуючи розширенням файлу mp4
Для сюжету про Т.Г. Шевченко це буде http://1tv.com.ua/uploads/video/2011/07/28/ec6beb2212b05cbdde358a2a7270c93fb57976a2.mp4
Info оригінального файлу сюжету про Шевченка Т.Г.

General
Complete name : D:\Downloads\ec6beb2212b05cbdde358a2a7270c93fb57976a2.mp4
Format : MPEG-4
Format profile : Base Media
Codec ID : isom
File size : 33.9 MiB
Duration : 5mn 42s
Overall bit rate mode : Variable
Overall bit rate : 830 Kbps
Writing application : Lavf52.108.0

Video
ID : 1
Format : AVC
Format/Info : Advanced Video Codec
Format profile : [email protected]
Format settings, CABAC : No
Format settings, ReFrames : 3 frames
Codec ID : avc1
Codec ID/Info : Advanced Video Coding
Duration : 5mn 42s
Bit rate mode : Variable
Bit rate : 800 Kbps
Width : 536 pixels
Height : 400 pixels
Display aspect ratio : 4:3
Frame rate mode : Constant
Frame rate : 24.000 fps
Color space : YUV
Chroma subsampling : 4:2:0
Bit depth : 8 bits
Scan type : Progressive
Bits/(Pixel*Frame) : 0.155
Stream size : 32.2 MiB (95%)
Writing library : core 115
Encoding settings : cabac=0 / ref=3 / deblock=1:0:0 / analyse=0x1:0x11 / me=dia / subme=7 / psy=1 / psy_rd=1.00:0.00 / mixed_ref=0 / me_range=4 / chroma_me=1 / trellis=2 / 8x8dct=0 / cqm=0 / deadzone=21,11 / fast_pskip=1 / chroma_qp_offset=-2 / threads=2 / sliced_threads=0 / nr=0 / decimate=1 / interlaced=0 / bluray_compat=0 / constrained_intra=0 / bframes=0 / weightp=0 / keyint=120 / keyint_min=25 / scenecut=40 / intra_refresh=0 / rc_lookahead=40 / rc=abr / mbtree=1 / bitrate=800 / ratetol=1.0 / qcomp=0.50 / qpmin=10 / qpmax=51 / qpstep=3 / ip_ratio=1.41 / aq=1:1.00

Audio
ID : 2
Format :
Format/Info : Advanced Audio Codec
Format profile : LC
Codec ID : 40
Duration : 5mn 42s
Bit rate mode : Variable
Bit rate : 37.9 Kbps
Maximum bit rate : 64.0 Kbps
Channel(s) : 1 channel
Channel positions : Front: C
Sampling rate : 22.05 KHz
Compression mode : Lossy
Stream size : 1.55 MiB (5%)
6. Кидаєте посилання у ваш улюблений менеджер завнтажень
7. Насолоджуєтесь результатом

Shturynmarkiyan 
Свій


З нами з: 08.05.09
Востаннє: 03.01.17
Повідомлень: 94

2012-03-12 16:44  
перезавантаж будь-ласка торрент,автор!...всі будуть вдячні)
А чи є ще серії?чи будуть?

ricardo13 
Новенький


З нами з: 12.12.09
Востаннє: 04.10.17
Повідомлень: 14

2012-08-31 15:05  
Дякую за роздачу.
bavarlok 
Новенький


З нами з: 05.01.11
Востаннє: 10.08.17
Повідомлень: 3

2013-02-03 19:17  
Доброго дня! Чудовий реліз, але чи є можливість десь знайти цей же відеоматеріал у форматі, більш придатному для перегляду?
SEMSEM 
Новенький


З нами з: 11.01.14
Востаннє: 12.03.14
Повідомлень: 1

2014-01-11 18:22  
Будьте ласкаві давайте інформацію про фільм правильну. Якщо пишите то повинно бути а не
WEBM/

Ваш часовий пояс: GMT + 2 Години

Нова тема   Відповісти