Еквілібріум / Equilibrium (2002) 720p 2xUkr/Eng | Sub Ukr/Eng

Нові коментарі

Нова тема   Відповісти
Автор Повідомлення
Anonymous 







2012-03-10 14:55  
Еквілібріум / Equilibrium (2002) 720p 2xUkr/Eng | Sub Ukr/Eng


Еквілібріум / Equilibrium (2002) 720p 2xUkr/Eng | Sub Ukr/Eng

«In a future where freedom is outlawed outlaws will become heroes.»


Жанр: бойовик, драма, фантастика
Країна: США



Кіностудія / кінокомпанія: Dimension Films, Blue Tulip Productions
Режисер: Курт Вімер (Kurt Wimmer)
Композитор: Клаус Бадельт (Klaus Badelt)
Актори: Крістіан Бейл (Christian Bale), Шон Бiн (Sean Bean), Емiлi Вотсон (Emily Watson), Тай Дiґс (Taye Diggs), Анґус Макфейден (Angus Macfadyen), Вiльям Фiчнер (William Fichtner), Шон Пертвi (Sean Pertwee), Метью Гарбор (Matthew Harbour), Домiнiк Парсел (Dominic Purcell) та інші.

Сюжет:
Світ після Третьої світової війни. Світ, в якому війна – не більше ніж далекий спогад. Світ, де люди позбавлені можливості висловлювати будь-які почуття, тому, що вони...заборонені. Це та ціна, яку людство платить за усунення зі свого життя війни. Тепер книги, мистецтво і музика знаходяться поза законом. А будь-яке почуття – вже злочин, що карається смертю.
Цікаві факти


• Приблизно двісті чоловік пройшли проби на роль Патріджа, і тільки, коли почалися зйомки, Лукас Фостер зумів переконати Шона Біна взяти участь у фільмі.
• Дивно, але сцена пістолетної перестрілки Джона Престона з офіцерами зайняла всього 30 хвилин знімального часу.
• Костюм Джона Престона був запозичений з фільму за участю Брюса Лі «Кулак люті».
• Пістолети, які використовуються Клериками, носять назву Beretta M93R. Саме такий пістолет свого часу був використаний на зйомках «Робота-поліцейського».
• Скрупульозними статистиками в стрічці нараховано 236 трупів.
• Престон добирається до житла Вікторії і виявляє там незчисленну кількість грамплатівок. Одну з них він вирішує прослухати. У фільмі звучить уривок дев’ятої симфонії Людвіґа Ван Бетговена.
• В епізоді з собакою використали цуценя бернського зененгунда. Цікаво, що собачі звуки, які можна почути в цьому епізоді насправді видавав спеціяльно навчений актор-пародист.
• За активної участі Курта Вімера, режисера і сценариста проекту, були внесені нові елементи в мистецтво єдиноборств. Ніхто раніше ще не знімав поєдинок на пістолетах у такому ракурсі.
• Наркотик, що використовуються у фільмі для відключення почуттів, зветься «Прозіум». Це своєрідна комбінація двох препаратів «Прозак» і «Валіум», кожен з яких служить у повсякденному житті для зняття стресу.
• Концепт-арт Лібрії був навіяний роботами художника Г'ю Феріса.
• Партрідж читає вірші Йєтса.
• Тетраґраматон - слово, що використовується в юдаїзмі як ім'я Бога.
• Спочатку препарат Прозіум називався «лібріум» (з натяком на Лібрію), але з'ясувалося, що це реально зареєстрована торгова марка.
• Під час конфіскації картин камера вихоплює полотно з юною дівчиною - це «Книга історій» Адольфа-Вільяма Боґер.
• Курт Вімер хотів, щоб Престона зіграв Домінік Парсел. Проте продюсери не бажали бачити в головній ролі маловідомого австралійського актора. Щоб зовсім не ображати Парсела, йому дали невелику роль на початку фільму.
• Режисер Курт Вімер двічі з'являється у фільмі. У першому випадку, він один зі слухачів на виступі клерика з Тетраґраматон, у другому - один із заколотників.
• У фільмі показано ґлобус, розташування материків на якому сильно відрізняється від нашого світу.
• Бюджет: $20,000,000
Info

Код:
General
Unique ID                        : 180554838298928589508107243214627567099 (0x87D598D2EBA09CADA92629E3410275FB)
Complete name                    : D:\HURTOM\Equilibrium (2002) [2xUkr, Eng] 720p [Hurtom].
Format                           :
Format version                   : Version 2
File size                        : 8.32 GiB
Duration                         : 1h 46mn
Overall bit rate                 : 11.1 Mbps
Movie name                       : Equilibrium (2002) [2xUkr, Eng] 720p [Hurtom]
Encoded date                     : UTC 2012-03-12 12:39:56
Writing application              : mkvmerge v5.0.1 ('Es ist Sommer') built on Oct  9 2011 11:55:43
Writing library                  : libebml v1.2.2 + libmatroska v1.3.0

Video
ID                               : 1
Format                           : AVC
Format/Info                      : Advanced Video Codec
Format profile                   : [email protected]
Format settings, CABAC           : Yes
Format settings, ReFrames        : 9 frames
Codec ID                         : V_MPEG4/ISO/AVC
Duration                         : 1h 46mn
Bit rate                         : 9 453 Kbps
Width                            : 1 280 pixels
Height                           : 720 pixels
Display aspect ratio             : 16:9
Frame rate                       : 23.976 fps
Color space                      : YUV
Chroma subsampling               : 4:2:0
Bit depth                        : 8 bits
Scan type                        : Progressive
Bits/(Pixel*Frame)               : 0.428
Stream size                      : 7.05 GiB (85%)
Title                            : Equilibrium (2002) [2xUkr, Eng] 720p [Hurtom]
Writing library                  : core 120 r2120 0c7dab9
Encoding settings                : cabac=1 / ref=9 / deblock=1:-3:-3 / analyse=0x3:0x113 / me=tesa / subme=11 / psy=1 / psy_rd=1.15:0.00 / mixed_ref=1 / me_range=24 / chroma_me=1 / trellis=2 / 8x8dct=1 / cqm=0 / deadzone=21,11 / fast_pskip=0 / chroma_qp_offset=-2 / threads=12 / sliced_threads=0 / nr=0 / decimate=0 / interlaced=0 / bluray_compat=0 / constrained_intra=0 / bframes=10 / b_pyramid=2 / b_adapt=2 / b_bias=0 / direct=3 / weightb=1 / open_gop=0 / weightp=2 / keyint=250 / keyint_min=23 / scenecut=40 / intra_refresh=0 / rc=crf / mbtree=0 / crf=16.2 / qcomp=0.60 / qpmin=0 / qpmax=69 / qpstep=4 / ip_ratio=1.40 / pb_ratio=1.30 / aq=1:0.70 / zones=144253,153697,crf=30
Language                         : English
Default                          : Yes
Forced                           : No
Matrix coefficients              : BT.709-5, BT.1361, IEC 61966-2-4 709, SMPTE RP177

Audio #1
ID                               : 2
Format                           : AC-3
Format/Info                      : Audio Coding 3
Mode extension                   : CM (complete main)
Codec ID                         : A_AC3
Duration                         : 1h 46mn
Bit rate mode                    : Constant
Bit rate                         : 448 Kbps
Channel(s)                       : 6 channels
Channel positions                : Front: L C R, Side: L R, LFE
Sampling rate                    : 48.0 KHz
Bit depth                        : 16 bits
Compression mode                 : Lossy
Stream size                      : 342 MiB (4%)
Title                            : 5.1 @ 448 kbps - двоголосий закадровий запис звуку з 2+2
Language                         : Ukrainian
Default                          : Yes
Forced                           : No

Audio #2
ID                               : 3
Format                           : AC-3
Format/Info                      : Audio Coding 3
Mode extension                   : CM (complete main)
Codec ID                         : A_AC3
Duration                         : 1h 46mn
Bit rate mode                    : Constant
Bit rate                         : 384 Kbps
Channel(s)                       : 6 channels
Channel positions                : Front: L C R, Side: L R, LFE
Sampling rate                    : 48.0 KHz
Bit depth                        : 16 bits
Compression mode                 : Lossy
Stream size                      : 293 MiB (3%)
Title                            : 5.1 @ 384 kbps - двоголосий закадровий запис з Нового каналу і ICTV
Language                         : Ukrainian
Default                          : No
Forced                           : No

Audio #3
ID                               : 4
Format                           : AC-3
Format/Info                      : Audio Coding 3
Mode extension                   : CM (complete main)
Codec ID                         : A_AC3
Duration                         : 1h 46mn
Bit rate mode                    : Constant
Bit rate                         : 640 Kbps
Channel(s)                       : 6 channels
Channel positions                : Front: L C R, Side: L R, LFE
Sampling rate                    : 48.0 KHz
Bit depth                        : 16 bits
Compression mode                 : Lossy
Stream size                      : 489 MiB (6%)
Title                            : 5.1 @ 640 kbps
Language                         : English
Default                          : No
Forced                           : No

Text #1
ID                               : 5
Format                           : UTF-8
Codec ID                         : S_TEXT/UTF8
Codec ID/Info                    : UTF-8 Plain Text
Language                         : Ukrainian
Default                          : No
Forced                           : No

Text #2
ID                               : 6
Format                           : UTF-8
Codec ID                         : S_TEXT/UTF8
Codec ID/Info                    : UTF-8 Plain Text
Language                         : English
Default                          : No
Forced                           : No
Релізи та інформація про озвучення/дублювання

720p 2xUkr/Eng | Sub Ukr/Eng (8.32 GB) — двоголосий закадровий запис з 2+2 (+ по 1+1) і двоголосий закадровий запис з Нового (+ по ICTV)
2xUkr/Eng | Sub Ukr/Eng (2.47 GB) — двоголосий закадровий запис з 2+2 (+ по 1+1) і двоголосий закадровий запис з Нового (+ по ICTV

Про озвучення записане з 2+2
Ролі озвучили: Ігор Волков і Інна Капінос

Про озвучення записане з Нового Каналу і ICTV
Ролі озвучили: Володимир Голосняк і Катерина Брайковська
Тривалість: 01:46:50
Якість: 720p (HDv0T / Panda) Джерело: Equilibrium 2002 1080p Blu-ray VC-1 DD 5.1 by sailormars
Відео:
кодек:
розмір кадру: 1280x720
бітрейт: 9453 кб/с

Аудіо # 1:
мова: українська
переклад: двоголосий закадровий запис з 2+2 | ролі озвучили: Ігор Волков і Інна Капінос?
кодек: 5.1
бітрейт: 448 кб/с

Аудіо # 2:
мова: українська
переклад: двоголосий закадровий трансльовано Новим Каналом і ICTV | ролі озвучили: Володимир Голосняк і Катерина Брайковська
кодек: 5.1
бітрейт: 384 кб/с

Аудіо # 3:
мова: анґлійська
переклад: ориґінал
кодек: 5.1
бітрейт: 640 кб/с

Субтитри # 1:
мова: українська
тип: програмні (м'які)
формат: *.srt
переклад субтитрів: myroslav, редагування w2958l

Субтитри # 2:
мова: анґлійська
тип: програмні (м'які)
формат: *.srt

Скріншоти:





За синхронізацію української доріжки №1 і остаточну синхронізацію під новий ріп доріжки №1 і №2 подяка Lan,
за синхронізацію української доріжки №2 подяка Romario_O,
за запис звуку з 2+2 подяка karvai0,
окрема подяка robotron005 і MAKAPOHHIK


Джерело:
Особиста оцінка: 9


Срібний реліз (на рейтинг впливає 50% завантаженого)
 Трекер:    Зареєстрований   

Завантажити / скачати фільм українською



відео для новачків



 Зареєстрований:   2012-03-12 16:06
 Розмір:   8.32 GB 
 Оцінка фільму:   8.6/10 (Голосів: 25)
   
Інші релізи
   Еквілібріум / Equilibrium (2002) Remux 1080р 3xUkr/Eng | Sub Eng staf777  2 / 0   26.31 GB   2017-03-11 10:38 
   Еквілібріум / Equilibrium (2002) 3xUkr/Eng Arsenfpu  17 / 0   2.05 GB   2016-09-17 20:48 
   Еквілібріум / Equilibrium (2002) [640x270] apvAltisimo  1 / 0   924 MB   2013-06-23 00:40 
   Еквілібріум / Equilibrium (2002) 1080p Ukr/Eng | Sub Ukr Ghost_Rider  7 / 0   10.81 GB   2011-02-27 14:19 
Anonymous 







2012-03-12 02:17  
Оскільки з'ясувалось що існує блюрей з чистим 1.78 (16:9). ріп буде замінено.
bot 
робот


З нами з: 30.09.07
Востаннє: 26.05.05
Повідомлень: 17594

2012-03-12 16:05  
Тему перенесено з Неоформлене відео до форуму Фільми в HD


w2958l

Anonymous 







2012-03-12 16:18  
Торент оновлено. Різницю між попереднім AR 2.35:1 і цим AR 1.78 (16:9) на прикладі SD можна побачити тут - https://toloka.to/t34110
imonko 
Відео Гуртом - фільмокрай
Відео Гуртом - фільмокрай


З нами з: 20.07.08
Востаннє: 11.04.17
Повідомлень: 7306

2012-03-12 17:15  
і доріжки з попереднього запланованого релізу лягли ідеально? тобто між трансферами була різниця лише в Ar а не в тривалості відео?
Anonymous 







2012-03-12 17:17  
imonko написано:
тобто між трансферами була різниця лише в Ar а не в тривалості відео?

Була і в тривалості, нові доріжки і саби на сервері.

igor911 
Відео Гуртом
Відео Гуртом


З нами з: 18.01.08
Востаннє: 26.09.17
Повідомлень: 7738

2013-04-04 12:41  
Сильний фільм. І актуальний для України. Треба шукати свого Джона Престона.
Wizard_Harry 
Свій


З нами з: 11.10.13
Востаннє: 24.09.17
Повідомлень: 112

2015-02-19 20:42  
Дуже сподобався, переглядав багато разів. Тематика 1984 та 451 градусу в книгах. Дякую автору за реліз
Ваш часовий пояс: GMT + 2 Години

Нова тема   Відповісти