Kreuzer / Surma - Viltis (split) (2008) [FLAC] | Industrial / Noise / Ambient

Нові коментарі

Нова тема   Відповісти
Останній раз роздавалося Sloneniatko (2017-08-13)
Автор Повідомлення
Lev 
VIP


З нами з: 14.10.09
Востаннє: 18.08.17
Повідомлень: 1819

2012-03-10 01:36  
Kreuzer / Surma - Viltis (split) (2008) [FLAC] | Industrial / Noise / Ambient

Kreuzer / Surma - Viltis (split) (2008) [FLAC] | Industrial / Noise / Ambient


Стиль: Industrial / Noise / Ambient
Країна, місто: Ізраїль, Тель-Авів - Україна, Київ
Сайти: http://www.myspace.com/surmamartial
Видавець: The Eastern Front
Виконавці:
Hort (Surma)
Kreuzer
Пісні:
    1. Kreuzer - Father Listened To The Radio... (Part I) (8:52)
    2. Kreuzer - Father Listened To The Radio... (Part Il) (5:34)
    3. Kreuzer - Father Listened To The Radio... (Part Ill) (6:38)
    4. Kreuzer - Rainy Night In Kaunas (3:05)
    5. Kreuzer - God Save Lithuania (4:12)
    6. Surma - Night Shelter (5:52)
    7. Surma - Relic (2:08)
    8. Surma - Speck Of Mist (4:41)
    9. Surma - When The Sun Was Rising (12:52)

Тривалість: 00:53:52
Мова: нема
Аудіо-кодек: FLAC
Бітрейт: 744 кб/с
Джерело: рутрекер
Додаткова інформація:
log EAC
Exact Audio Copy V0.99 prebeta 5 from 4. May 2009

EAC extraction logfile from 29. August 2009, 11:10

Various / Viltis

Used drive : PIONEER DVD-RW DVR-115D Adapter: 4 ID: 0

Read mode : Secure
Utilize accurate stream : Yes
Defeat audio cache : Yes
Make use of C2 pointers : No

Read offset correction : 48
Overread into Lead-In and Lead-Out : No
Fill up missing offset samples with silence : Yes
Delete leading and trailing silent blocks : No
Null samples used in CRC calculations : Yes
Used interface : Installed external ASPI interface

Used output format : User Defined Encoder
Selected bitrate : 1024 kBit/s
Quality : High
Add ID3 tag : No
Command line compressor : C:\Program Files\Exact Audio Copy\Flac\flac.exe
Additional command line options : -8 -A tukey(0.25) -A gauss(0.1875) -b 4096 -V -T "artist=%a" -T "title=%t" -T "album=%g" -T "date=%y" -T "tracknumber=%n" -T "genre=%m" %s --sector-align

TOC of the extracted CD

Track | Start | Length | Start sector | End sector
---------------------------------------------------------
1 | 0:00.00 | 8:51.42 | 0 | 39866
2 | 8:51.42 | 5:34.02 | 39867 | 64918
3 | 14:25.44 | 6:37.62 | 64919 | 94755
4 | 21:03.31 | 3:05.21 | 94756 | 108651
5 | 24:08.52 | 4:11.43 | 108652 | 127519
6 | 28:20.20 | 5:52.07 | 127520 | 153926
7 | 34:12.27 | 2:07.43 | 153927 | 163494
8 | 36:19.70 | 4:41.15 | 163495 | 184584
9 | 41:01.10 | 12:51.53 | 184585 | 242462

Range status and errors

Selected range

Filename D:\REQUEST\Kreuzer & Surma - 2008 - Viltis\Various - Viltis.wav

Peak level 84.0 %
Range quality 100.0 %
Test CRC 83F0EFC3
Copy CRC 83F0EFC3
Copy OK

No errors occurred

AccurateRip summary

Track 1 accurately ripped (confidence 1) [4A1E615B]
Track 2 accurately ripped (confidence 1) [A675D3A2]
Track 3 accurately ripped (confidence 1) [50AB5903]
Track 4 accurately ripped (confidence 1) [3C2023D3]
Track 5 accurately ripped (confidence 1) [1CDE0122]
Track 6 accurately ripped (confidence 1) [CF0F6BFF]
Track 7 accurately ripped (confidence 1) [A9B892F1]
Track 8 accurately ripped (confidence 1) [DFCDFD2C]
Track 9 accurately ripped (confidence 1) [DD1CCA99]

All tracks accurately ripped

End of status report
Лімітоване видання (300 вручну пронумерованих копій).
Роздача містить скани.


Якщо Ви справді бажаєте підтримати українське - після прослуховування, якщо музика вам сподобалась, придбайте ліцензійний диск. Підтримаймо вітчизняних виконавців!


Срібний реліз (на рейтинг впливає 50% завантаженого)
 Трекер:    Зареєстрований   

Завантажити / скачати українську музику



відео для новачків



 Зареєстрований:   2012-03-10 01:36
 Розмір:   296 MB 
 Оцінка музики:   9.8/10 (Голосів: 5)
   
Ваш часовий пояс: GMT + 2 Години

Нова тема   Відповісти