Вхід у змінному взутті (ВУЗВ) - Плановая ВУЗВ Вечеринка (2003) [] | Rap

Нові коментарі

Нова тема   Відповісти
Останній раз роздавалося chichik (2019-01-18)
Автор Повідомлення
K2 
Поважний учасник


З нами з: 02.11.08
Востаннє: 17.01.19
Повідомлень: 214

2012-03-09 11:38  
Вхід у змінному взутті (ВУЗВ) - Плановая ВУЗВ Вечеринка (2003) [] | Rap



Вхід у змінному взутті (ВУЗВ) - Плановая ВУЗВ Вечеринка (2003) [] | Rap



Стиль: Rap
Країна, місто: Україна, Київ
Видавець: Moon Records
Виконавці:
- Олександр Стьоганов
- Роман Веркулич
- Олег Тунєв
- Олександр Польовий
- Олексій Потапенко (Потап)


Пісні:
    01. Бо вже той день коли...
    02. Далеко за ріки, далеко за гори
    03. Лірика
    04. Nigger nation
    05. Шум-Гам
    06. Іди до мене
    07. Стриб-скок
    08. Хто скаже так
    09. Час, що минає
    10. Україна
    11. Каролін
    12. Динамо-Київ
    13. Тік-так (Чуєш репу смак)
    14. Час коралів (RMX)
    15. Далеко за ріки, далеко за гори (RMX)
    16. Територія А

    CD Bonus tracks:
    17. Моя кохана
    18. Min Net

Тривалість: 01:05:31
Мова: українська
Аудіо-кодек:
Бітрейт: lossless
Джерело: rutracker.org (Прописав теги, перемістив кавери в папку covers, перейменував їх відповідно)
LOG:

Exact Audio Copy V0.99 prebeta 4 from 23. January 2008

Звіт EAC про видобування, котре виконане 9. вересня 2009, 20:23

В.У.З.В. / Плановая Вечеринка

Дисковод: TSSTcorpCDDVDW SH-S202J Adapter: 1 ID: 1

Режим читання : Точний
Використати точний потік : Так
Вимкнути аудіо кеш : Так
Застосувати мітки C2 : Ні

Корекція зміщення при читанні : 6
Екстрачитання областей Lead-in і Lead-out : Ні
Заповнення пропущених семплів тишею : Так
Видалення блоків з тишею на початку і кінці : Ні
При вирахуванні CRC використовувались нульові семпли : Так
Використаний інтерфейс : Встановлений зовнішній ASPI-інтерфейс
Поводження з проміжками : Не знайдено, отже приєднано до попереднього трека

Застосований вихідний формат : Внутрішні WAV-операції
Формат семпла : 44.100 Гц; 16 біт; стерео

TOC видобутого CD

Трек | Старт | Довжина | Початковий сектор | Кінцевий сектор
------------------------------------------------------------------
1 | 0:00.00 | 3:51.10 | 0 | 17334
2 | 3:51.10 | 4:00.28 | 17335 | 35362
3 | 7:51.38 | 2:44.35 | 35363 | 47697
4 | 10:35.73 | 4:49.35 | 47698 | 69407
5 | 15:25.33 | 2:23.37 | 69408 | 80169
6 | 17:48.70 | 4:07.49 | 80170 | 98743
7 | 21:56.44 | 3:52.32 | 98744 | 116175
8 | 25:49.01 | 3:04.31 | 116176 | 130006
9 | 28:53.32 | 3:09.16 | 130007 | 144197
10 | 32:02.48 | 3:24.02 | 144198 | 159499
11 | 35:26.50 | 3:50.22 | 159500 | 176771
12 | 39:16.72 | 4:45.46 | 176772 | 198192
13 | 44:02.43 | 5:03.13 | 198193 | 220930
14 | 49:05.56 | 3:31.70 | 220931 | 236825
15 | 52:37.51 | 3:49.37 | 236826 | 254037
16 | 56:27.13 | 1:39.52 | 254038 | 261514
17 | 58:06.65 | 3:04.65 | 261515 | 275379
18 | 61:11.55 | 4:19.48 | 275380 | 294852

Трек 1

Ім'я файлу C:\Documents and Settings\Admin\Рабочий стол\ВУЗВ\01.wav

Піковий рівень 100.0 %
Якість трека 100.0 %
CRC копії 4FB57397
Копіювання... OK

Трек 2

Ім'я файлу C:\Documents and Settings\Admin\Рабочий стол\ВУЗВ\02.wav

Піковий рівень 100.0 %
Якість трека 100.0 %
CRC копії 3A43FA53
Копіювання... OK

Трек 3

Ім'я файлу C:\Documents and Settings\Admin\Рабочий стол\ВУЗВ\03.wav

Піковий рівень 100.0 %
Якість трека 100.0 %
CRC копії AC16AEA2
Копіювання... OK

Трек 4

Ім'я файлу C:\Documents and Settings\Admin\Рабочий стол\ВУЗВ\04.wav

Піковий рівень 100.0 %
Якість трека 100.0 %
CRC копії D9431337
Копіювання... OK

Трек 5

Ім'я файлу C:\Documents and Settings\Admin\Рабочий стол\ВУЗВ\05.wav

Піковий рівень 100.0 %
Якість трека 100.0 %
CRC копії 4DA60449
Копіювання... OK

Трек 6

Ім'я файлу C:\Documents and Settings\Admin\Рабочий стол\ВУЗВ\06.wav

Піковий рівень 100.0 %
Якість трека 100.0 %
CRC копії 3DB669C0
Копіювання... OK

Трек 7

Ім'я файлу C:\Documents and Settings\Admin\Рабочий стол\ВУЗВ\07.wav

Піковий рівень 100.0 %
Якість трека 99.9 %
CRC копії 23AE9B3A
Копіювання... OK

Трек 8

Ім'я файлу C:\Documents and Settings\Admin\Рабочий стол\ВУЗВ\08.wav

Піковий рівень 100.0 %
Якість трека 100.0 %
CRC копії 4DB77C13
Копіювання... OK

Трек 9

Ім'я файлу C:\Documents and Settings\Admin\Рабочий стол\ВУЗВ\09.wav

Піковий рівень 100.0 %
Якість трека 100.0 %
CRC копії 65258AC7
Копіювання... OK

Трек 10

Ім'я файлу C:\Documents and Settings\Admin\Рабочий стол\ВУЗВ\10.wav

Піковий рівень 100.0 %
Якість трека 100.0 %
CRC копії 268EEC3F
Копіювання... OK

Трек 11

Ім'я файлу C:\Documents and Settings\Admin\Рабочий стол\ВУЗВ\11.wav

Піковий рівень 100.0 %
Якість трека 100.0 %
CRC копії 7C2F713A
Копіювання... OK

Трек 12

Ім'я файлу C:\Documents and Settings\Admin\Рабочий стол\ВУЗВ\12.wav

Піковий рівень 100.0 %
Якість трека 100.0 %
CRC копії 0E026E63
Копіювання... OK

Трек 13

Ім'я файлу C:\Documents and Settings\Admin\Рабочий стол\ВУЗВ\13.wav

Піковий рівень 100.0 %
Якість трека 99.9 %
CRC копії A47C1645
Копіювання... OK

Трек 14

Ім'я файлу C:\Documents and Settings\Admin\Рабочий стол\ВУЗВ\14.wav

Піковий рівень 100.0 %
Якість трека 100.0 %
CRC копії F5699CE9
Копіювання... OK

Трек 15

Ім'я файлу C:\Documents and Settings\Admin\Рабочий стол\ВУЗВ\15.wav

Піковий рівень 92.2 %
Якість трека 100.0 %
CRC копії A0C7AD45
Копіювання... OK

Трек 16

Ім'я файлу C:\Documents and Settings\Admin\Рабочий стол\ВУЗВ\16.wav

Піковий рівень 100.0 %
Якість трека 100.0 %
CRC копії A0314E26
Копіювання... OK

Трек 17

Ім'я файлу C:\Documents and Settings\Admin\Рабочий стол\ВУЗВ\17.wav

Піковий рівень 98.8 %
Якість трека 100.0 %
CRC копії DDD0AF8B
Копіювання... OK

Трек 18

Ім'я файлу C:\Documents and Settings\Admin\Рабочий стол\ВУЗВ\18.wav

Піковий рівень 100.0 %
Якість трека 100.0 %
CRC копії 727A9249
Копіювання... OK

Помилки не траплялися

Кінець звіту
Додав .cue, кому потрібен той знає, що робити. Роздачу не перезаливав.
CUE

REM GENRE Hip-Hop
REM DATE 2003
REM COMMENT "ExactAudioCopy v0.99pb4"
PERFORMER "ВУЗВ"
TITLE "Плановая ВУЗВ Вечеринка"
FILE "01. Бо вже той день, коли...." WAVE
TRACK 01 AUDIO
TITLE "Бо вже той день, коли..."
PERFORMER "ВУЗВ"
INDEX 01 00:00:00
FILE "02. Далеко за ріки, далеко за гори." WAVE
TRACK 02 AUDIO
TITLE "Далеко за ріки, далеко за гори"
PERFORMER "ВУЗВ"
INDEX 01 00:00:00
FILE "03. Лірика." WAVE
TRACK 03 AUDIO
TITLE "Лірика"
PERFORMER "ВУЗВ"
INDEX 01 00:00:00
FILE "04. Nigger nation." WAVE
TRACK 04 AUDIO
TITLE "Nigger nation"
PERFORMER "ВУЗВ"
INDEX 01 00:00:00
FILE "05. Шум-Гам." WAVE
TRACK 05 AUDIO
TITLE "Шум-Гам"
PERFORMER "ВУЗВ"
INDEX 01 00:00:00
FILE "06. Іди до мене." WAVE
TRACK 06 AUDIO
TITLE "Іди до мене"
PERFORMER "ВУЗВ"
INDEX 01 00:00:00
FILE "07. Стриб-скок." WAVE
TRACK 07 AUDIO
TITLE "Стриб-скок"
PERFORMER "ВУЗВ"
INDEX 01 00:00:00
FILE "08. Хто скаже так..wav" WAVE
TRACK 08 AUDIO
TITLE "Хто скаже так"
PERFORMER "TJim Morrison"
INDEX 01 00:00:00
FILE "09. Час, що минає." WAVE
TRACK 09 AUDIO
TITLE "Час, що минає"
PERFORMER "ВУЗВ"
INDEX 01 00:00:00
FILE "10. Україна." WAVE
TRACK 10 AUDIO
TITLE "Україна"
PERFORMER "ВУЗВ"
INDEX 01 00:00:00
FILE "11. Каролін." WAVE
TRACK 11 AUDIO
TITLE "Каролін"
PERFORMER "ВУЗВ"
INDEX 01 00:00:00
FILE "12. Динамо-Київ." WAVE
TRACK 12 AUDIO
TITLE "Динамо-Київ"
PERFORMER "ВУЗВ"
INDEX 01 00:00:00
FILE "13. Тік-так (Чуєш репу смак)." WAVE
TRACK 13 AUDIO
TITLE "Тік-так (Чуєш репу смак)"
PERFORMER "ВУЗВ"
INDEX 01 00:00:00
FILE "14. Час коралів (RMX)." WAVE
TRACK 14 AUDIO
TITLE "Час коралів (RMX)"
PERFORMER "Jim Morrison"
INDEX 01 00:00:00
FILE "15. Далеко за ріки, далеко за гори (RMX)." WAVE
TRACK 15 AUDIO
TITLE "Далеко за ріки, далеко за гори (RMX)"
PERFORMER "ВУЗВ"
INDEX 01 00:00:00
FILE "16. Територія А." WAVE
TRACK 16 AUDIO
TITLE "Територія А"
PERFORMER "ВУЗВ"
INDEX 01 00:00:00
FILE "17. Моя кохана." WAVE
TRACK 17 AUDIO
TITLE "Моя кохана"
PERFORMER "ВУЗВ"
INDEX 01 00:00:00
FILE "18. Min Net..wav" WAVE
TRACK 18 AUDIO
TITLE "Min Net"
PERFORMER "ВУЗВ"
INDEX 01 00:00:00
Додаткова інформація:
Історія гурту:
Команду з традиційно дивною для хіп-хопу назвою «Вхід у змінному взутті» рівненчанин Олександр Стьоганов зібрав спеціально для участі у фестивалі «Червона рута-95» у Сімферополі. До гурту також входили Олег Тунєв, Олександр Польовий та Роман Веркулич. Основою проекту стали старшокласники із ВІА будинку піонерів «Цвіркуни». І хоча лауреатами фестивалю адепти україномовного репу «Вхід у змінному взутті» не стали, проте написана спеціально для них Ткачем-Тараном-Саліховим пісенька «Сірко» була визнана найкращою, що й принесло свіжоспеченому гуртові певну популярність. Після цього записуються нові пісні — «Іди собі геть» і «Україна». У тому ж 1995 році групу покидає Олег Тунєв.
В кінці 1996 року «Вхід у змінному взутті» перебрався до Києва, отримавши дах над головою і контракт у своїх екс-земляків — мистецької агенції "Територія «А». Разом з цим хлопці вступили до столичного інституту культури. Того ж року гурт покидає Олександр Польовий, зі Стьогановим залишився тільки Роман Веркулич.
У період з 1995 по 1999 роки «Вхід у Змінному Взутті» давав 20 — 30 концертів щомісяця… Попри мізерні гонорари, хлопці відчували себе щасливими. Взимку 1997 року до гурту повертається Олег Тунєв, записуються 3 нових треки: «Той день коли», «Далеко за ріки» і «Час минає». На ICTV в ефір виходить перший кліп «Той день коли», група виїжджає на гастролі по Україні, а після повернення знімається другий кліп «Час минає». Після повернення з чергових гастролей, гурт приступає до запису альбому, в Хмельницькому знімається кліп «Каролін». Співпраця з мистецькою агенцією "Територія «А» завершилася випуском дебютного альбому «Планове засідання», який був найуспішнішою та найскандальнішою роботою колективу. Колектив стали вважати найпопулярнішим українським гуртом у своїй категорії. Незважаючи на це, того ж таки 1997 року Олег Тунєв покидає «ВуЗВ», перейшовши в групу «Другий Постріл» і записавши трек «Один, два, три..» з реперами «П'ятниця 21».
У 1998 році в ефірі з'являється кліп на пісню «Хтось Каже Так». Група виїжджає на гастролі й паралельно пише новий альбом. Однак влітку 1998 року контракт гурту «Вхід у змінному взутті» із "Територією «А» закінчився. Звинувативши учасників ВуЗВ у вживанні наркотиків, лідер Мистецької Агенції поет Олександр Бригинець відмовився продовжувати опікування проектом. У 1999 році «ВуЗВ» випускає провальний альбом «П'ять», який зводився в місті Рівне на місцевій студії, в Хмельницькому знімається кліп на пісню «Just A Sad Song».
У 2000 році відбулося відновлення колективу в новому складі. Окрім Веркулича та Олексія Потапенка (Потапа) (колишнього учасника проекту UGO), котрі стали за мікрофони, до команди приєдналися хлопці з гурту «Samosaboyzz»: Андрій Безкровний — клавішні, Шура Петренко — гітара, Сергій Чегодаєв — бас, Василь Прозоров — ударні. У 2001 році Стьоганов випускає 2 збірки «В. У. З. В. Найкраще 1996—1998» і «Премося по чорному», після чого подався шукати кращого життя до Сан-Франциско, а всі пісні подарував Роману Веркуличу. Тунєв створив свою групу «4К» ("4Комнаты), Веркулич іде в групу «Samosaboyzz», а «ВуЗВ» заморожує свій проект.
В 2002-му Стьоганов повернувся з-за кордону до Києва і розпочав новий проект Jigga. В цей же час «ВуЗВ» приступив до запису демо-версії альбому на студії «Комора». Проте вже наступного року з команди пішов Потап, забравши назву колективу.
У 2005 році оновлений «Вхід у Змінному Взутті» в складі Олексія Потапенка та Олександра Стьоганова разом з групами XS та New'Z'Cool взяв участь у створенні саундтреку до фільму «Штольня», випустив ремікс на пісню «Неділя-Понеділок» на диску-триб'юті Скрябіна та випустив у 2006 році альбом «Просто», який був створений більше в стилі R'N'B. Веркулич та інші музиканти вирішили виступати під назвою «Samosaboyzz». У їх двомовному російсько-українському репертуарі знайшлося місце й переспівам старих добрих хітів дев'яностих «Час що минає» та «Каролін». У 2007 році Потап покидає групу і починає працювати з Настею Каменських, а Стьоганов переходить в групу «Dress Code».

http://uk.wikipedia.org/wiki/%D0%92%D1%85%D1%96%D0%B4_%D1%83_%D0%B7%D0%BC%D1%96%D0%BD%D0%BD%D0%BE%D0%BC%D1%83_%D0%B2%D0%B7%D1%83%D1%82%D1%82%D1%96
Якщо Ви справді бажаєте підтримати українське - після прослуховування, якщо музика вам сподобалась, придбайте ліцензійний диск. Підтримаймо вітчизняних виконавців!


Фріліч (завантажене не впливає на рейтинг)
 Трекер:    Зареєстрований   

Завантажити / скачати українську музику



відео для новачків



 Зареєстрований:   2012-03-09 12:03
 Розмір:   428 MB 
 Оцінка музики:   10/10 (Голосів: 16)
   
Kitler 
Модератор програмного забезпечення


З нами з: 22.04.11
Востаннє: 15.01.19
Повідомлень: 586

2012-03-09 12:55  
K2 написано:
Джерело:
Посилання на сторонні трекери заборонено!
ssTAss 
Модератор музики


З нами з: 05.07.08
Востаннє: 18.01.19
Повідомлень: 14539

2012-03-09 17:52  
K2 написано:
Прописав теги, перемістив кавери в папку covers, перейменував їх відповідно

супер, а куди діли .cue? це ж нормальний потрековий ріп і куе мусить бути

ssTAss 
Модератор музики


З нами з: 05.07.08
Востаннє: 18.01.19
Повідомлень: 14539

2012-03-09 23:40  
вже побачив, що і на джерелі нема куе

дописав видавця

K2 
Поважний учасник


З нами з: 02.11.08
Востаннє: 17.01.19
Повідомлень: 214

2012-03-10 00:26  
Дякую за хелп. А cue шкода немає.
lasmen 
VIP


З нами з: 08.12.11
Востаннє: 11.08.13
Повідомлень: 619

2012-03-13 20:33  
Ха... Оце так...
Хохол... 
Забанено
Забанено


З нами з: 08.03.12
Востаннє: 13.03.12
Повідомлень: 1

2012-03-13 22:11  
ssTAss Ти не перестарався? Навіщо так жорстоко? Це занадто. І як це можна назвати "флудом"?
Цитата:
на форумах флудом називають будь-яке повідомлення, яке не стосується теми форуму
ви розумієте
Цитата:
яке не стосується теми форуму
Я ж не написав
Цитата:
Купуйте Українське
Здивовано висловився і все. От мабуть вас в минулому банили багато разів і ви хочете заспокоїти свої нерви.


повторний аккаунт, видано ssTAss
Kitler 
Модератор програмного забезпечення


З нами з: 22.04.11
Востаннє: 15.01.19
Повідомлень: 586

2012-03-13 22:24  
Хохол... написано:
ssTAss Ти не перестарався?
"Не вказуй модераторові, що робити", - TheMarlboro
Хохол... написано:
Я ж не написав
Це ж не вам дали бан. Чи може маєте кілька акаунтів?
ВУЗВ - це, мабуть, одна з тих небагатьох груп в такому стилі (точніше їх 2(ще Вова Зі Львова - земляк)), яку, як справжній Індустріаліст і МДМник, я слухаю. Так що величезне спасибі за реліз. Якщо я нічого не плутаю, то в ціього гурту є пісенька "Та пішли всі в дупу", т ак ось порада геймерам/задротам - під час прослуховування цієї пісні будь-який найскладніший рівень робиться простим.

ssTAss 
Модератор музики


З нами з: 05.07.08
Востаннє: 18.01.19
Повідомлень: 14539

2012-03-13 22:39  
Kitler написано:
Чи може маєте кілька акаунтів?

це одна і та ж людина
Хохол... написано:
І як це можна назвати "флудом"

флуд - це беззмістовні (чи однакові) повідомлення в декількох темах
а за повторний аккаунт - бан
ще зробите - забаню по айпішці

K2 
Поважний учасник


З нами з: 02.11.08
Востаннє: 17.01.19
Повідомлень: 214

2012-03-18 13:35  
В шапку теми додав .cue!
mr.killer 
Поважний учасник


З нами з: 11.08.10
Востаннє: 17.01.19
Повідомлень: 213

2016-04-03 22:17  
Вийшов новий альбом "Вузв For Ever!"
sergiy-ssv 
Новенький


З нами з: 18.12.16
Востаннє: 09.01.19
Повідомлень: 7

2018-07-28 21:48  
Хто просив ВУЗВ роздати? Чому ж ніхто не качає? Роздаю тільки в суботу, неділю. Качайте, бо скоро видалю з компа!
-_-В_E_N_D_Е_R-_- 
Забанено
Забанено


З нами з: 11.07.18
Востаннє: 23.08.18
Повідомлень: 530

2018-07-29 17:38  
Альбом є на рутрекері, кому потрібно
Ваш часовий пояс: GMT + 2 Години

Нова тема   Відповісти