ФлайzZza - Засмага на серце (2008) [] | Reggae / Hip-Hop / Funk

Нові коментарі

Нова тема   Відповісти
Останній раз роздавалося Myfordownloads (2016-06-30)
Автор Повідомлення
jinotot 
Почесний оцифрувальник літератури


З нами з: 28.01.09
Востаннє: 21.06.19
Повідомлень: 3234

2012-02-27 22:27  
ФлайzZza - Засмага на серце (2008) [] | Reggae / Hip-Hop / Funk

ФлайzZza - Засмага на серце (2008) [] | Reggae / Hip-Hop / Funk


Стиль: Reggae, Hip-Hop, Funk
Країна, місто: Україна, Луцьк
Сайти: Офіційний сайт
Видавець: Comp Music EMI
Виконавці:
Алла "ДжамАлка" Новак – вокалістка
Андрій "Тіма" Тимчук – автор текстів, вокаліст
Олександр "Івашка" Іванов – автор текстів, вокаліст
Денис Валяєв – гітарист, композитор
Олександр Рудчик – труба
Роман Яремій, або "DJ Roma" – DJ

Сергій "[email protected]" Бугайов – барабани
Максим Комарук – бас
Пісні:
    01. Засмага на серце [03:24]
    02. Вчора я не роздягався... [04:04]
    03. Панамці (я так хотів самоката) [03:35]
    04. Кредит на життя [03:41]
    05. Березневий кіт (+ Мотор'ролла) [04:02]
    06. Радісно так! [02:59]
    07. Банани [03:51]
    08. Автобус [03:18]
    09. Гей же гу! (Ох як я люблю ті наші гори) [04:02]
    10. Право на правду [03:51]
    11. Соло (+ Habakuk (Польща)) [03:47]
    12. Радиво [03:42]
    13. Вода [04:25]
    14. Наворочено-Різдвяна [03:28]
    15. Штанга [03:15]
    16. Радісно так! (CherryVata remix (Білорусь)) [05:28]
+Відео на "Вчора я не роздягався..."
Тривалість:00:03:40
Якість:

Відео:
кодек: MPEG-4 Visual (DivX 5.x)
розмір кадру: 720 x 576 (5:4)
бітрейт: 1647 кб/с

Аудіо:
мова: українська
кодек: PCM
бітрейт: 1536 кб/с

Скріншоти:


Тривалість: 01:01:00
Мова: українська
Аудіо-кодек:
Бітрейт: 1022 кб/с
Джерело: власний ріп, за наданий диск щира дяка користувачеві jozhyk_bo, оформлення релізу "позичив" у 6c6c6 Happy
Додаткова інформація:
Про гурт
Гурт ФлайzZzа засновано у 2000 році. З того часу шалений креатив та потужна енергетика заряджають позитивними емоціями українських меломанів. Його музичний стиль можна описати як своєрідну та унікальну суміш реггі, хіп-хопу, фанку та фольку. За час свого існування гурт виступив з сотнями концертів на сценах десятків українських міст, не забуваючи про закордонні вояжі (ФлайzZzа неодноразово виступала своєрідною "візиткою" України на різноманітних сценах поза межами своєї країни). Завоювавши ще на одному з перших своїх фестивалів звання «найтанцювальнішого гурту», вони і по сьогодні заставляють своїми ритмами гарно відриватись глядачів на концертах і танцмайданчиках.

ФлайzZzа брала участь у багатьох розважальних проектах та хіт-парадах на різноманітних теле- та радіо каналах, турах Україною в межах акції «Не будь байдужим!» та «DJUICE DANCE FESTIVAL» протягом 2005-2008 рр.

У першому альбомі, який у 2006 році був випущений компанією "MOON Records", було три спільних проекти з одними з найкращих гуртів України – Тартак, От Вінта та Скрябін. До наступного, який з'явився на світ в червні 2008, ввійшли спільні роботи разом із ТНМК, Мотор'роллою, Олегом Скрипкою, Habakuk (Польща) та CherryVata (Білорусь). В творчості колективу вже знайшли своє місце чотири відео роботи, які мали активну ротацію на телеканалах України та Польщі. В підтримку нового альбому "Засмага на серце", який видала компанія Comp Music EMI, в гарячій ротації вже «відкрутився» та досяг у багатьох хіт-парадах високі щаблі кліп на пісню "Вчора я не роздягався", а на сьогодні «дорвався» до телеекранів і у радіопростір наступний хіт команди «Радісно так!».
Лоґ-файл
Exact Audio Copy V1.0 beta 3 from 29. August 2011

EAC extraction logfile from 18. February 2012, 19:46

ФлайzZzа / Засмага на серце

Used drive : ASUS DRW-20B1S Adapter: 0 ID: 0

Read mode : Secure
Utilize accurate stream : Yes
Defeat audio cache : Yes
Make use of C2 pointers : No

Read offset correction : 6
Overread into Lead-In and Lead-Out : No
Fill up missing offset samples with silence : Yes
Delete leading and trailing silent blocks : No
Null samples used in CRC calculations : Yes
Used interface : Native Win32 interface for Win NT & 2000

Used output format : Internal WAV Routines
Sample format : 44.100 Hz; 16 Bit; Stereo

TOC of the extracted CD

Track | Start | Length | Start sector | End sector
---------------------------------------------------------
1 | 0:00.00 | 3:24.27 | 0 | 15326
2 | 3:24.27 | 4:04.38 | 15327 | 33664
3 | 7:28.65 | 3:35.32 | 33665 | 49821
4 | 11:04.22 | 3:41.67 | 49822 | 66463
5 | 14:46.14 | 4:02.29 | 66464 | 84642
6 | 18:48.43 | 2:59.54 | 84643 | 98121
7 | 21:48.22 | 3:51.66 | 98122 | 115512
8 | 25:40.13 | 3:18.52 | 115513 | 130414
9 | 28:58.65 | 4:02.55 | 130415 | 148619
10 | 33:01.45 | 3:51.53 | 148620 | 165997
11 | 36:53.23 | 3:47.26 | 165998 | 183048
12 | 40:40.49 | 3:42.48 | 183049 | 199746
13 | 44:23.22 | 4:25.10 | 199747 | 219631
14 | 48:48.32 | 3:28.04 | 219632 | 235235
15 | 52:16.36 | 3:15.03 | 235236 | 249863
16 | 55:31.39 | 5:29.01 | 249864 | 274539
17 | 63:32.40 | 9:34.34 | 285940 | 329023

Range status and errors

Selected range

Filename C:\Users\ubuntu\Desktop\9999\ФлайzZzа - Засмага на серце (2008).wav

Peak level 100.0 %
Extraction speed 4.4 X
Range quality 100.0 %
Test CRC 5854AF80
Copy CRC 5854AF80
Copy OK

No errors occurred

AccurateRip summary

Track 1 not present in database
Track 2 not present in database
Track 3 not present in database
Track 4 not present in database
Track 5 not present in database
Track 6 not present in database
Track 7 not present in database
Track 8 not present in database
Track 9 not present in database
Track 10 not present in database
Track 11 not present in database
Track 12 not present in database
Track 13 not present in database
Track 14 not present in database
Track 15 not present in database
Track 16 not present in database

None of the tracks are present in the AccurateRip database

End of status report

---- CUETools DB Plugin V2.1.3

[CTDB TOCID: rZYrSEC98XydCeTFTb_OZLlbwq8-] disk not present in database, Submit result: rZYrSEC98XydCeTFTb_OZLlbwq8- has been uploaded
Куе-файл
REM GENRE Reggae
REM DATE 2008
REM DISCID D6112211
REM COMMENT "ExactAudioCopy v1.0b3"
PERFORMER "ФлайzZzа"
TITLE "Засмага на серце"
FILE "ФлайzZzа - Засмага на серце (2008)." WAVE
TRACK 01 AUDIO
TITLE "Засмага на серце"
PERFORMER "ФлайzZzа"
FLAGS DCP
INDEX 01 00:00:00
TRACK 02 AUDIO
TITLE "Вчора я не роздягався.."
PERFORMER "ФлайzZzа"
FLAGS DCP
INDEX 01 03:24:27
TRACK 03 AUDIO
TITLE "Панамці (я так хотів самоката)"
PERFORMER "ФлайzZzа"
FLAGS DCP
INDEX 01 07:28:65
TRACK 04 AUDIO
TITLE "Кредит на життя"
PERFORMER "ФлайzZzа"
FLAGS DCP
INDEX 01 11:04:22
TRACK 05 AUDIO
TITLE "Березневий кіт"
PERFORMER "ФлайzZzа + Мотор'ролла"
FLAGS DCP
INDEX 01 14:46:14
TRACK 06 AUDIO
TITLE "Радісно так!"
PERFORMER "ФлайzZzа"
FLAGS DCP
INDEX 01 18:48:43
TRACK 07 AUDIO
TITLE "Банани"
PERFORMER "ФлайzZzа"
FLAGS DCP
INDEX 01 21:48:22
TRACK 08 AUDIO
TITLE "Автобус"
PERFORMER "ФлайzZzа"
FLAGS DCP
INDEX 01 25:40:13
TRACK 09 AUDIO
TITLE "Гей же гу! (Ох як я люблю ті наші гори)"
PERFORMER "ФлайzZzа"
FLAGS DCP
INDEX 01 28:58:65
TRACK 10 AUDIO
TITLE "Право на правду"
PERFORMER "ФлайzZzа"
FLAGS DCP
INDEX 01 33:01:45
TRACK 11 AUDIO
TITLE "Соло"
PERFORMER "ФлайzZzа + Habakuk (Польща)"
FLAGS DCP
INDEX 01 36:53:23
TRACK 12 AUDIO
TITLE "Радиво"
PERFORMER "ФлайzZzа"
FLAGS DCP
INDEX 01 40:40:49
TRACK 13 AUDIO
TITLE "Вода"
PERFORMER "ФлайzZzа"
FLAGS DCP
INDEX 01 44:23:22
TRACK 14 AUDIO
TITLE "Наворочено-Різдвяна"
PERFORMER "ФлайzZzа"
FLAGS DCP
INDEX 01 48:48:32
TRACK 15 AUDIO
TITLE "Штанга"
PERFORMER "ФлайzZzа"
FLAGS DCP
INDEX 01 52:16:36
TRACK 16 AUDIO
TITLE "Радісно так! (CherryVata remix (Білорусь))"
PERFORMER "ФлайzZzа"
FLAGS DCP
INDEX 01 55:31:39
Спектр
Якщо Ви справді бажаєте підтримати українське - після прослуховування, якщо музика вам сподобалась, придбайте ліцензійний диск.
Підтримаймо вітчизняних виконавців!


Срібний реліз (на рейтинг впливає 50% завантаженого)
 Трекер:    Зареєстрований   

Завантажити / скачати українську музику



відео для новачків



 Зареєстрований:   2012-02-27 22:27
 Розмір:   535 MB 
 Оцінка музики:   10/10 (Голосів: 7)
   
lasmen 
VIP


З нами з: 09.12.11
Востаннє: 11.08.13
Повідомлень: 618

2012-03-13 21:46  
Класно
Цитата:
Вода
Я цю пісню... ех... клас
Morfeo 
Новенький


З нами з: 02.11.15
Востаннє: 21.12.16
Повідомлень: 3

2016-12-21 05:32  
Чомусь не можу дозавантажити 99% проблемні файли (cover.jpg та cover - 001.jpg)
А з аудіо все гаразд на 100% використовую qBittorrent.

Ваш часовий пояс: GMT + 2 Години

Нова тема   Відповісти