Підводна братва / Shark Tale (2004) 1080p 2хUkr/Eng | Sub Eng

Нові коментарі

Нова тема   Відповісти
Автор Повідомлення
ratbol 
Модератор HD


З нами з: 03.02.09
Востаннє: 13.08.17
Повідомлень: 1083

2012-02-24 19:51  
Підводна братва / Shark Tale (2004) 1080p 2хUkr/Eng | Sub Eng


«A new school's gonna rule...»

Жанр: анімація, дитячий, комедія
Країна: США



Кіностудія / кінокомпанія: DreamWorks Animation
Режисер: Бібо Бержерон, Вікі Дженсон, Роб Латтерман
Актори: Вілл Сміт, Роберт Де Ніро, Рене Зельвеґер, Джек Блек, Анджеліна Джолі, Мартін Скорсезе, Зіггі Марлі та інші
Вікові обмеження: 12+

Сюжет:
Підводний світ сколихнувся, коли з'явилися вісті про те, що убитий син ватажка банди акул. Поряд з місцем злочину була помічена маленька рибка по імені Оскар. Оскар робить з себе крутого, вдає, що саме він завалив бандюгана, - і незабаром стикається з наслідками свого вчинку.


Тривалість: 01:26:03
Якість: 1080p
Відео:
кодек:
розмір кадру: 1920 х 1080
бітрейт: 12.5 Мб/с

Аудіо # 1:
мова: українська
переклад: багатоголосий закадровий | 1+1
кодек: 5.1
бітрейт: 448 кб/с

Аудіо # 2:
мова: українська
переклад: багатоголосий закадровий | Новий канал
кодек: 5.1
бітрейт: 448 кб/с

Аудіо # 3:
мова: англійська
переклад: оригінал
кодек: 5.1
бітрейт: 448 кб/с

Аудіо # 4:
мова: англійська
переклад: коментарі
кодек: 2.0
бітрейт: 192 кб/с

Субтитри:
мова: англійська, англійська (коментарі)
тип: програмні (м'які)
формат: *.srt

Info
General
Unique ID : 178489121541824125236679103772231538973 (0x8647C11FDD89E32BB681810B29CD191D)
Complete name : E:\Підводна братва [Shark Tale] (2004) 1080p [Hurtom].
Format :
Format version : Version 2
File size : 8.71 GiB
Duration : 1h 26mn
Overall bit rate : 14.5 Mbps
Encoded date : UTC 2012-02-24 16:16:08
Writing application : mkvmerge v3.2.0 ('Beginnings') built on Feb 12 2010 16:46:17
Writing library : libebml v0.7.9 + libmatroska v0.8.1

Video
ID : 1
Format : AVC
Format/Info : Advanced Video Codec
Format profile : [email protected]
Format settings, CABAC : Yes
Format settings, ReFrames : 4 frames
Codec ID : V_MPEG4/ISO/AVC
Duration : 1h 26mn
Bit rate : 12.5 Mbps
Width : 1 920 pixels
Height : 1 080 pixels
Display aspect ratio : 16:9
Frame rate : 25.000 fps
Color space : YUV
Chroma subsampling : 4:2:0
Bit depth : 8 bits
Scan type : Progressive
Bits/(Pixel*Frame) : 0.241
Stream size : 7.34 GiB (84%)
Writing library : core 66 r1109M 75b495f
Encoding settings : cabac=1 / ref=4 / deblock=1:-1:-1 / analyse=0x3:0x113 / me=tesa / subme=7 / psy_rd=1.0:0.0 / mixed_ref=1 / me_range=32 / chroma_me=1 / trellis=2 / 8x8dct=1 / cqm=0 / deadzone=21,11 / chroma_qp_offset=-2 / threads=12 / nr=0 / decimate=0 / mbaff=0 / bframes=4 / b_pyramid=1 / b_adapt=2 / b_bias=0 / direct=3 / wpredb=1 / keyint=240 / keyint_min=24 / scenecut=40(pre) / rc=2pass / bitrate=12500 / ratetol=1.0 / qcomp=0.60 / qpmin=10 / qpmax=51 / qpstep=4 / cplxblur=20.0 / qblur=0.5 / vbv_maxrate=50000 / vbv_bufsize=50000 / ip_ratio=1.40 / pb_ratio=1.30 / aq=1:1.00
Language : English
Default : Yes
Forced : No

Audio #1
ID : 2
Format : AC-3
Format/Info : Audio Coding 3
Mode extension : CM (complete main)
Codec ID : A_AC3
Duration : 1h 26mn
Bit rate mode : Constant
Bit rate : 448 Kbps
Channel(s) : 6 channels
Channel positions : Front: L C R, Side: L R, LFE
Sampling rate : 48.0 KHz
Bit depth : 16 bits
Compression mode : Lossy
Stream size : 276 MiB (3%)
Title : 5.1 [448 Kbps] - багатоголосий закадровий, 1+1
Language : Ukrainian
Default : Yes
Forced : No

Audio #2
ID : 3
Format : AC-3
Format/Info : Audio Coding 3
Mode extension : CM (complete main)
Codec ID : A_AC3
Duration : 1h 26mn
Bit rate mode : Constant
Bit rate : 448 Kbps
Channel(s) : 6 channels
Channel positions : Front: L C R, Side: L R, LFE
Sampling rate : 48.0 KHz
Bit depth : 16 bits
Compression mode : Lossy
Stream size : 276 MiB (3%)
Title : 5.1 [448 Kbps] - багатоголосий закадровий, Новий канал
Language : Ukrainian
Default : No
Forced : No

Audio #3
ID : 4
Format : AC-3
Format/Info : Audio Coding 3
Mode extension : CM (complete main)
Codec ID : A_AC3
Duration : 1h 26mn
Bit rate mode : Constant
Bit rate : 448 Kbps
Channel(s) : 6 channels
Channel positions : Front: L C R, Side: L R, LFE
Sampling rate : 48.0 KHz
Bit depth : 16 bits
Compression mode : Lossy
Stream size : 276 MiB (3%)
Title : 5.1 [448 Kbps]
Language : English
Default : No
Forced : No

Audio #4
ID : 5
Format : AC-3
Format/Info : Audio Coding 3
Mode extension : CM (complete main)
Codec ID : A_AC3
Duration : 1h 26mn
Bit rate mode : Constant
Bit rate : 192 Kbps
Channel(s) : 2 channels
Channel positions : Front: L R
Sampling rate : 48.0 KHz
Bit depth : 16 bits
Compression mode : Lossy
Stream size : 118 MiB (1%)
Title : 2.0 [192 Kbps] - коментарі
Language : English
Default : No
Forced : No

Text #1
ID : 6
Format : UTF-8
Codec ID : S_TEXT/UTF8
Codec ID/Info : UTF-8 Plain Text
Language : English
Default : No
Forced : No

Text #2
ID : 7
Format : UTF-8
Codec ID : S_TEXT/UTF8
Codec ID/Info : UTF-8 Plain Text
Title : коментарі
Language : English
Default : No
Forced : No
Скріншоти





Цитата:
За запис сирого звуку подяка urij546724 та xslim.
За синхронізацію доріжок подяка MutuLI.
За постер подяка pan_oleg.


Джерело: &


Срібний реліз (на рейтинг впливає 50% завантаженого)
 Трекер:    Зареєстрований   

Завантажити / скачати мультфільм українською



відео для новачків



 Зареєстрований:   2012-02-24 19:51
 Розмір:   8.44 GB 
 Оцінка мультфільму:   10/10 (Голосів: 5)
   
Інші релізи
   Підводна братва / Shark Tale (2004) 720p 3хUkr/Eng | Sub Eng igor911  7 / 0   3.25 GB   2014-06-02 16:25 
   Підводна братва / Shark Tale (2004) 3хUkr/Eng AngryBirdsUA  6 / 4   1.69 GB   2014-06-01 22:09 
   Підводна братва / Shark Tale (2004) 2хUkr/Eng | Sub Eng MutuLI  3 / 0   1.92 GB   2011-04-03 00:26 
   Підводна братва / Shark tale (2004) pan_oleg  8 / 0   1.36 GB   2009-10-25 10:10 
ratbol 
Модератор HD


З нами з: 03.02.09
Востаннє: 13.08.17
Повідомлень: 1083

2012-02-25 00:08  
188.230.54.173 (airbites.net.ua) - хтось вантажить а у списку завантажувачів не відображається...
Віктор 
Відео Гуртом - субтитрування
Відео Гуртом - субтитрування


З нами з: 09.01.10
Востаннє: 11.08.17
Повідомлень: 8686

2012-02-25 00:11  
ratbol написано:
хтось вантажить а у списку завантажувачів не відображається...

Я в такому випадку просто зупиняю роздачу. Це хтось виклав деінде коротше це називається мультитрекерна роздача здається.

DiGen 
Модератор HD та координатор Команди HD
Модератор HD та координатор Команди HD


З нами з: 12.11.09
Востаннє: 24.06.13
Повідомлень: 1451

2012-02-25 00:34  
w2958l написано:
мультитрекерна роздача здається.

В основному так і є, хоча ніби по локалці теж може йти.

Ваш часовий пояс: GMT + 2 Години

Нова тема   Відповісти