Смурфики / The Smurfs (2011) 720p Ukr/Eng | Sub Eng

Нові коментарі

Нова тема   Відповісти
Автор Повідомлення
braveboy 
Відео Гуртом - команда HD
Відео Гуртом - команда HD


З нами з: 15.06.10
Востаннє: 13.08.17
Повідомлень: 949

2012-02-18 06:21  
Смурфики / The Smurfs (2011) 720p Ukr/Eng | Sub Eng



Жанр: анімація, комедія, пригодницький
Країна: США



Кіностудія / кінокомпанія: Columbia Pictures, Kerner Entertainment Company, Sony Pictures Animation
Режисер: Райа Госнел
Актори: Хенк Азарія, Ніл Патрік Харріс, Джейма Мейс, Джонатан Уінтерс, Алан Каммінг, Кеті Перрі

Сюжет:
За сюжетом, рятуючись від злого чарівника Гаргамеля, крихітні смурфики опиняються за межами рідного села. Зі свого чарівного світу вони потрапляють прямо в наш світ, а саме в Центральний парк міста Нью-Йорк. Тепер маленьким відважним смурфикам належить відшукати дорогу додому і не потрапити в лапи Гаргамеля.


Тривалість: 01:42:43
Якість: 720p
Відео:
кодек:
розмір кадру: 1280 х 720
бітрейт: 4904 кб/с

Аудіо # 1:
мова: українська
переклад: професійний дубльований
кодек: 5.1
бітрейт: 640 кб/с

Аудіо # 2:
мова: англійська
переклад: оригінал
кодек: 5.1
бітрейт: 448 кб/с

Джерело озвучення:


Субтитри:
мова: українська (Forced)
тип: програмні (м'які)
формат: *.srt

Субтитри:
мова: англійська
тип: програмні (м'які)
формат: *.srt
Info
General
Unique ID : 187602618604094509198583816928731378406 (0x8D22F3388AAEEBFA80F7606D645CB2E6)
Complete name : E:\Temp\The Smurfs (2011) [Ukr,Eng Sub Eng] 720p [HURTOM].
Format :
Format version : Version 2
File size : 4.30 GiB
Duration : 1h 42mn
Overall bit rate : 5 993 Kbps
Encoded date : UTC 2012-02-18 01:07:10
Writing application : mkvmerge v5.0.1 ('Es ist Sommer') built on Oct 9 2011 11:55:43
Writing library : libebml v1.2.2 + libmatroska v1.3.0

Video
ID : 1
Format : AVC
Format/Info : Advanced Video Codec
Format profile : [email protected]
Format settings, CABAC : Yes
Format settings, ReFrames : 8 frames
Codec ID : V_MPEG4/ISO/AVC
Duration : 1h 42mn
Bit rate : 4 904 Kbps
Width : 1 280 pixels
Height : 720 pixels
Display aspect ratio : 16:9
Frame rate : 23.976 fps
Color space : YUV
Chroma subsampling : 4:2:0
Bit depth : 8 bits
Scan type : Progressive
Bits/(Pixel*Frame) : 0.222
Stream size : 3.43 GiB (80%)
Title : The Smurfs (2011) 720p
Writing library : core 116 r2074 2641b9e
Encoding settings : cabac=1 / ref=8 / deblock=1:-3:-3 / analyse=0x3:0x113 / me=umh / subme=9 / psy=1 / psy_rd=0.60:0.00 / mixed_ref=1 / me_range=32 / chroma_me=1 / trellis=1 / 8x8dct=1 / cqm=0 / deadzone=21,11 / fast_pskip=0 / chroma_qp_offset=-2 / threads=3 / sliced_threads=0 / nr=0 / decimate=0 / interlaced=0 / bluray_compat=0 / constrained_intra=0 / bframes=6 / b_pyramid=2 / b_adapt=2 / b_bias=0 / direct=1 / weightb=1 / open_gop=0 / weightp=2 / keyint=250 / keyint_min=23 / scenecut=40 / intra_refresh=0 / rc_lookahead=40 / rc=2pass / mbtree=1 / bitrate=4904 / ratetol=1.0 / qcomp=0.60 / qpmin=10 / qpmax=51 / qpstep=4 / cplxblur=20.0 / qblur=0.5 / ip_ratio=1.40 / aq=1:1.00
Language : English
Default : Yes
Forced : No

Audio #1
ID : 2
Format : AC-3
Format/Info : Audio Coding 3
Mode extension : CM (complete main)
Codec ID : A_AC3
Duration : 1h 42mn
Bit rate mode : Constant
Bit rate : 640 Kbps
Channel(s) : 6 channels
Channel positions : Front: L C R, Side: L R, LFE
Sampling rate : 48.0 KHz
Bit depth : 16 bits
Compression mode : Lossy
Stream size : 470 MiB (11%)
Title : 5.1 @ 640 kbps [Blu-ray]
Language : Ukrainian
Default : Yes
Forced : No

Audio #2
ID : 3
Format : AC-3
Format/Info : Audio Coding 3
Mode extension : CM (complete main)
Codec ID : A_AC3
Duration : 1h 42mn
Bit rate mode : Constant
Bit rate : 448 Kbps
Channel(s) : 6 channels
Channel positions : Front: L C R, Side: L R, LFE
Sampling rate : 48.0 KHz
Bit depth : 16 bits
Compression mode : Lossy
Stream size : 329 MiB (7%)
Title : 5.1 @ 448 kbps
Language : English
Default : No
Forced : No

Text #1
ID : 4
Format : UTF-8
Codec ID : S_TEXT/UTF8
Codec ID/Info : UTF-8 Plain Text
Title : Forced
Language : Ukrainian
Default : No
Forced : No

Text #2
ID : 5
Format : UTF-8
Codec ID : S_TEXT/UTF8
Codec ID/Info : UTF-8 Plain Text
Title : Full
Language : English
Default : No
Forced : No
Скріншоти









Особиста оцінка: 0 - не дивився
Джерело: thepiratebay


 Трекер:    Зареєстрований   

Завантажити / скачати мультфільм українською



відео для новачків



 Зареєстрований:   2012-02-18 06:22
 Розмір:   4.3 GB 
 Оцінка мультфільму:   9.8/10 (Голосів: 20)
   
Інші релізи
   Смурфики / The Smurfs (2011) patriot2305  15 / 0   1.46 GB   2012-11-11 10:07 
   Смурфики / The Smurfs (2011) 720p Zeus62  5 / 0   4.3 GB   2011-12-08 16:04 
   Смурфики / The Smurfs (2011) Jatx_11  0 / 0   2.12 GB   2011-10-03 16:18 
   Смурфики / The Smurfs (2011) AVC DеLight  3 / 0   2.16 GB   2011-10-02 21:46 
   Смурфики / The Smurfs (2011) DVD9 Ukr/Rus | sub Rus Dimon19  2 / 0   5.31 GB   2011-09-20 16:57 
Віктор 
Відео Гуртом - субтитрування
Відео Гуртом - субтитрування


З нами з: 09.01.10
Востаннє: 11.08.17
Повідомлень: 8686

2012-02-19 00:19  
Ріп власний? Якщо ні вказуй звідки.
braveboy 
Відео Гуртом - команда HD
Відео Гуртом - команда HD


З нами з: 15.06.10
Востаннє: 13.08.17
Повідомлень: 949

2012-02-19 00:29  
w2958l написано:
Якщо ні вказуй звідки.

згідно правил це не обов*язково вказувати

Ваш часовий пояс: GMT + 2 Години

Нова тема   Відповісти