Монстр у Парижі / Un monstre à Paris (2011) 1080p Ukr/Fra | Line

Нові коментарі

Нова тема   Відповісти
Автор Повідомлення
Anonymous 







2012-02-16 17:29  
Монстр у Парижі / Un monstre à Paris (2011) 1080p Ukr/Fra | Line

Монстр у Парижі / Un monstre à Paris (2011) 1080p Ukr/Fra | Line


Жанр: анімація, пригодницький, сімейний, комедія
Країна: Франція



Кіностудія / кінокомпанія: Bibo Films, Europa Corp., Walking The Dog, uFilm, France 3 Cinema
Режисер: Бібо Бержерон
Актори: Мат’є Шедід, Ванесса Параді, Гад Ельмалех, Франсуа Клюзе, Людівін Сан’є.

Сюжет:
Новий повнометражний мультфільм «Монстр в Парижі» від творця фільму «Підводна братва» Бібо Бержерона і спродюсований Люком Бессоном («Нікіта», «П'ятий елемент», «Жанна д'Арк»), розповість дивовижну історію, що відбулася в Парижі під час повені Сени в 1910 році. Головними персонажами мультфільму є Еміль - сором'язливий кіномеханік, одержимий винахідництвом Рауль і Люсіль - співачка кабаре «Райський птах». Одного разу Рауль в лабораторії досліджував речовину, яка чинила на оточуючих дивний вплив. Наприклад, мавпочка на ім'я Чарльз придбала голос оперного співака, а паросток соняшника виріс у величезну рослину за одну мить. Раптом стався вибух. Всі виходять «сухими з води», але Еміль переконаний, що він мигцем побачив якусь жахливу істоту. Кілька днів по тому, двоє друзів з жахом довідалися з газет, що монстр, що підходить під опис Еміля, дійсно існує, і вони несуть за це відповідальність.


Тривалість: 01:30:00
Якість: [HDChina]
Відео:
кодек:
розмір кадру: 1920x1036
бітрейт: 8929 кб/с

Аудіо # 1:
мова: українська |Line| від Skiff
переклад: багатоголосий закадровий
кодек: 2.0
бітрейт: 384 кб/с

Аудіо # 2:
мова: французька
переклад: оригінал
кодек: 5.1
бітрейт: 1510 кб/с

Info

Format :
File size : 6.80 GiB
Duration : 1h 29mn
Overall bit rate : 10.8 Mbps
Movie name : Un monstre à Paris (2011) 1080p Ukr/Fra | Line
Encoded date : UTC 2012-02-16 14:12:54
Writing application : mkvmerge v2.4.2 ('Oh My God') built on Jan 18 2009 17:30:28
Writing library : libebml v0.7.7 + libmatroska v0.8.1
Video #1
ID : 1
Format : AVC
Format/Info : Advanced Video Codec
Format profile : [email protected]
Format settings, CABAC : Yes
Format settings, ReFrames : 4 frames
Muxing mode : Container [email protected]
Codec ID : V_MPEG4/ISO/AVC
Duration : 1h 29mn
Bit rate : 8 716 Kbps
Nominal bit rate : 8 929 Kbps
Width : 1 920 pixels
Height : 1 036 pixels
Display aspect ratio : 1.853
Frame rate : 23.976 fps
Resolution : 24 bits
Colorimetry : 4:2:0
Scan type : Progressive
Bits/(Pixel*Frame) : 0.183
Stream size : 5.47 GiB (80%)
Title : A.Monster.in.Paris.2011.1080p.BluRay.-HDChina
Writing library : core 120 r2146 bcd41db
Encoding settings : cabac=1 / ref=4 / deblock=1:-1:-1 / analyse=0x3:0x133 / me=umh / subme=10 / psy=1 / psy_rd=1.00:0.00 / mixed_ref=1 / me_range=48 / chroma_me=1 / trellis=2 / 8x8dct=1 / cqm=0 / deadzone=21,11 / fast_pskip=1 / chroma_qp_offset=-2 / threads=12 / sliced_threads=0 / nr=0 / decimate=0 / interlaced=0 / bluray_compat=0 / constrained_intra=0 / bframes=6 / b_pyramid=2 / b_adapt=2 / b_bias=0 / direct=3 / weightb=1 / open_gop=0 / weightp=2 / keyint=250 / keyint_min=23 / scenecut=40 / intra_refresh=0 / rc_lookahead=60 / rc=2pass / mbtree=1 / bitrate=8929 / ratetol=1.0 / qcomp=0.60 / qpmin=0 / qpmax=69 / qpstep=4 / cplxblur=20.0 / qblur=0.5 / vbv_maxrate=50000 / vbv_bufsize=50000 / nal_hrd=none / ip_ratio=1.50 / aq=1:1.00
Language : English
Audio #2
ID : 2
Format : AC-3
Format/Info : Audio Coding 3
Codec ID : A_AC3
Duration : 1h 29mn
Bit rate mode : Constant
Bit rate : 384 Kbps
Channel(s) : 2 channels
Channel positions : L R
Sampling rate : 48.0 KHz
Stream size : 247 MiB (4%)
Language : Ukrainian
Audio #3
ID : 3
Format :
Format/Info : Digital Theater Systems
Codec ID : A_DTS
Duration : 1h 29mn
Bit rate mode : Constant
Bit rate : 1 510 Kbps
Channel(s) : 6 channels
Channel positions : Front: L C R, Surround: L R, LFE
Sampling rate : 48.0 KHz
Resolution : 24 bits
Video delay : 11ms
Stream size : 972 MiB (14%)
Language : French
Скріншоти





Особиста оцінка: не дивився


 Трекер:    Зареєстрований   

Завантажити / скачати мультфільм українською



відео для новачків



 Зареєстрований:   2012-02-16 17:29
 Розмір:   6.8 GB 
 Оцінка мультфільму:   6.6/10 (Голосів: 28)
   
Інші релізи
Gybalj 
Свій


З нами з: 14.05.09
Востаннє: 22.08.17
Повідомлень: 56

2012-02-16 19:41  
Станьте на роздачу!!!
Anonymous 







2012-02-16 20:11  
Gybalj
роздається з самого початку, порти відкрийте !

я бачу ти не вперше кричиш
Gybalj написано:
Станьте на роздачу!!!
, одного вже в лазню відправили)))
Milady 
Новенький


З нами з: 22.08.11
Востаннє: 23.08.17
Повідомлень: 15

2012-02-24 13:47  
А меншого розміру, але з двома доріжками, не буде?
dinosaurus 
Частий відвідувач


З нами з: 13.12.10
Востаннє: 17.07.17
Повідомлень: 36

2012-03-02 12:05  
У мене фільм шарпався був тільки український трек, оновив KLite до 8.40 (Mediaplayer Classic-HC 1.6.1.4074) відеоряд іде ідеально але французька таки не з'явилась Cry (1)

Це треба якись інший програвач або кодек, чи там таки тільки один трек?

Додано через 1 годину 49 хвилин 5 секунд:

Вибачаюсь, сам знайшов, треба на BSPlayer, там звук перемикається коректно.

bot 
робот


З нами з: 30.09.07
Востаннє: 26.05.05
Повідомлень: 17412

2012-09-21 15:10  
Тему перенесено з Мультфільми в HD до форуму Неоформлене відео


urij546724

Ваш часовий пояс: GMT + 2 Години

Нова тема   Відповісти