Бембі. Дилогія / Bambi. Dilogy (1942-2006) 1080р UKR/Eng | Sub UKR/Eng

Нові коментарі

Нова тема   Відповісти
Автор Повідомлення
DiGen 
Модератор HD та координатор Команди HD
Модератор HD та координатор Команди HD


З нами з: 12.11.09
Востаннє: 24.06.13
Повідомлень: 1451

2012-02-03 16:45  
Бембі. Дилогія / Bambi. Dilogy (1942-2006) 1080р UKR/Eng | Sub UKR/Eng

Бембі. Дилогія / Bambi. Dilogy (1942-2006) 1080р UKR/Eng | Sub UKR/Eng
Бембі / Bambi (1942) 1080р UKR/Eng | Sub UKR/Eng

Бембі / Bambi (1942) 1080р UKR/Eng | Sub UKR/Eng

Оригінальний постер
Жанр: анімація, драма, сімейний
Країна: США

Кіностудія / кінокомпанія: Walt Disney Productions
Режисер: Джеймс Алгар (James Algar), Семьюел Армстронг (Samuel Armstrong)
Ролі озвучують: Харді Олбрайт, Стен Александр, Бобетт Одрі, Пітер Бен, Телма Бордман, Джанет Чепмен, Джинн Крісті, Долін Бремстон Кук, Меріон Дарлінгтон, Тім Девіс
Сюжет:
Одного разу вранці на маленькій і освітленій весняним сонцем лісовій галявині народилося оленя. На нового лісового принца збіглися й злетілися подивитися всі звірі й птахи. Оленятка назвали Бембі.
Коли Бембі навчився ходити й розмовляти він завів собі друзів - кроленя Тампера і скунса Квіточку. А одного разу на галявині, куди привела його мати, Бембі познайомився з маленькою веселою оленихою - Фейлін. Але життя в лісі буває небезпечним і жорстоким. Вперше Бембі зіткнувся з цим, коли прозоре осіннє лісове повітря прошили постріли рушниць - всі звірі почали в паніці тікати, і тоді Бембі вперше почув страшне слово - Людина.
Iсторiя створення мультфiльма "Бембi"
Коли в 1937 році Волт Дісней прочитав книгу Фелікса Солта «Бембі. Життя в лісах», а саме в цьому році на екрани вийшла «Білосніжка», він одразу зрозумів, що буде знімати мультиплікаційний фільм за цією книгою. Історія життя оленя від самого народження була написана відомим австрійським письменником з великим почуттям і ніжністю.

Дісней прийшов до висновку, що для передачі всієї краси та виразності книги потрібна велика кількість ретельно вимальованих натуралістичних деталей. Протягом трьох років велися підготовчі роботи. Дісней вiдрядив художника Моріса Дея на п'ять місяців в ліси штату Мен, де той робив замальовки і фотографував звірів, кущі, хмари, кору дерев, снігові замети, лісові пожежі.

Багатофокусна камера, яка давала чіткість зображення переднього і заднього планів, особливо широко використовувалася при зйомках фільму «Бембі». Слід врахувати, що одночасно знімалося до дев'яти різних планів. Художники, малювали лісові сцени, віддавали перевагу олiйнiй фарбi для отримання більшої деталізації та перспективи.

Однак такі звірі, як кролик, скунс і сова - кумедні, смішні мультиплікаційні персонажі, олень та інші лісові істоти в цьому фільмі реалiзованi настільки достовірно, що здаються справжніми. Під час роботи над фільмом у звіринці студії Діснея в місті Бербанку знаходилися два оленя, двоє скунсiв, кілька білок, птахи, кролики, бурундуки та інші лісові мешканці. Вони використовувалися як живi моделi художниками-мультиплікаторами, які, oкрім того, відвідували спеціальні уроки з малювання тварин та їх пластики.

Фільм «Бембі» вийшов на екрани в 1942 році, через п'ять років після початку роботи над ним. Це єдиний серед мультиплікаційних фільмів Діснея, який оспівує природу всіма доступними поетичними і сценічними засобами.
Тривалість: 01:09:50
Якість:
Відео:
кодек: Н.264
розмір кадру: 1456 х 1080
бітрейт: 7458 кб/с
частота кадрів: 23, 976 к/с

Аудіо # 1:
мова: українська
переклад: багатоголосий закадровий
кодек: 5.1
бітрейт: 384 кб/с
Українською мовою мультфільм озвучено "Так треба продакшн" на замовлення відеокомпаніїї "ВІKКОН"
Джерело - VHS


Аудіо # 2:
мова: англійська
переклад: оригінал
кодек: 5.1
бітрейт: 1510 кб/с

Субтитри 1:
мова: українська
тип: програмні (м'які)
формат: *.srt

Субтитри 2:
мова: англійська
тип: програмні (м'які)
формат: *.srt
Info:

General
Unique ID : 250773885350148723979508317818092002722 (0xBCA94B233FEEC1289E87E18129AC1DA2)
Format :
File size : 4.56 GiB
Duration : 1h 9mn
Overall bit rate : 9 354 Kbps
Movie name : Bambi (1941) - Release for HDCLUB
Encoded date : UTC 2012-02-04 02:25:10
Writing application : mkvmerge v4.5.0 ('Speed of Light') зібрано Feb 6 2011 12:51:39
Writing library : libebml v1.2.0 + libmatroska v1.1.0
Video #1
ID : 1
Format : AVC
Format/Info : Advanced Video Codec
Format profile : [email protected]
Format settings, CABAC : Yes
Format settings, ReFrames : 4 frames
Format settings, GOP : M=4, N=56
Codec ID : V_MPEG4/ISO/AVC
Duration : 1h 9mn
Bit rate : 7 458 Kbps
Width : 1 456 pixels
Height : 1 080 pixels
Display aspect ratio : 4:3
Frame rate : 23.976 fps
Color space : YUV
Chroma subsampling : 4:2:0
Bit depth : 8 bits
Scan type : Progressive
Bits/(Pixel*Frame) : 0.198
Stream size : 3.55 GiB (78%)
Title : Bembi (1942).Tr_01.Video.[Hurtom] by DiGen
Writing library : core 113 r1884 7313bb5
Encoding settings : cabac=1 / ref=4 / deblock=1:0:0 / analyse=0x3:0x113 / me=umh / subme=7 / psy=1 / psy_rd=1.00:0.00 / mixed_ref=1 / me_range=16 / chroma_me=1 / trellis=1 / 8x8dct=1 / cqm=0 / deadzone=21,11 / fast_pskip=0 / chroma_qp_offset=-2 / threads=6 / sliced_threads=0 / nr=0 / decimate=1 / interlaced=0 / constrained_intra=0 / bframes=3 / b_pyramid=2 / b_adapt=1 / b_bias=0 / direct=1 / weightb=1 / open_gop=0 / weightp=2 / keyint=250 / keyint_min=23 / scenecut=40 / intra_refresh=0 / rc_lookahead=40 / rc=2pass / mbtree=1 / bitrate=7458 / ratetol=1.0 / qcomp=0.60 / qpmin=0 / qpmax=69 / qpstep=4 / cplxblur=20.0 / qblur=0.5 / ip_ratio=1.40 / aq=1:1.00
Language : English
Audio #2
ID : 2
Format : AC-3
Format/Info : Audio Coding 3
Mode extension : CM (complete main)
Codec ID : A_AC3
Duration : 1h 9mn
Bit rate mode : Constant
Bit rate : 384 Kbps
Channel(s) : 6 channels
Channel positions : Front: L C R, Side: L R, LFE
Sampling rate : 48.0 KHz
Bit depth : 16 bits
Compression mode : Lossy
Stream size : 192 MiB (4%)
Title : Bembi (1942).Tr_02.A-UKR.[5.1-384].23,976.[Hurtom] by rooster
Language : Ukrainian
Audio #3
ID : 3
Format :
Format/Info : Digital Theater Systems
Codec ID : A_DTS
Duration : 1h 9mn
Bit rate mode : Constant
Bit rate : 1 510 Kbps
Channel(s) : 6 channels
Channel positions : Front: L C R, Side: L R, LFE
Sampling rate : 48.0 KHz
Bit depth : 24 bits
Compression mode : Lossy
Stream size : 754 MiB (16%)
Title : Bembi (1942).Tr_03.A-Eng.[Hurtom] by DiGen
Language : English
Text #4
ID : 4
Format : UTF-8
Codec ID : S_TEXT/UTF8
Codec ID/Info : UTF-8 Plain Text
Title : Bembi (1942).Tr_04.Sub-UKR.SRT.[Hurtom] by HURTOM
Language : Ukrainian
Text #5
ID : 5
Format : UTF-8
Codec ID : S_TEXT/UTF8
Codec ID/Info : UTF-8 Plain Text
Title : Bembi (1942).Tr_05.Sub-Eng.SRT.[Hurtom] by DiGen
Language : English
Світлини









Подяки:
всім, хто приймав участь у субтитруванні за Українські субтитри
rooster за готову Українську доріжку та оформлення
MutuLI за оцифрування VHS
taramon за зберігання касет
pan_oleg за співробітництво і допомогу
t0mas за Українізовані постери

Джерело: &інше
У іншому форматі
Бембі 2 / Bambi 2 (2006) 1080р Eng | Sub UKR/Eng


Бембі 2 / Bambi 2 (2006) 1080р Eng | Sub UKR/Eng

Бембі. Дилогія / Bambi. Dilogy (1942-2006) 1080р UKR/Eng | Sub UKR/Eng
Оригінальний постер
Жанр: анімація, драма, казка, дитячий, сімейний
Країна: США



Кіностудія / кінокомпанія: DisneyToon Studios, Walt Disney Pictures
Режисер: Браян Піменталь
Актори: Патрік Стюарт, Олександр Гулд, Кейт Фергюсон, Брендон Берг, Ніккі Джонс, Андреа Бауен та ін.

Сюжет:
Після смерті матері Бембі приєднується до свого батька, який є Великим принцом лісу. Батько виховує молодого оленя та навчає різної лісової мудрості. Але також і йому є чого повчитись в свого енергійного молодого сина....


Тривалість: 01:12:21
Якість:
Відео:
кодек:
розмір кадру: 1920 х 1080
бітрейт: 8268 кб/с

Аудіо:
мова: англійська
переклад: оригінал
кодек: 5.1
бітрейт: 1510 кб/с

Субтитри 1:
мова: українська
тип: програмні (м'які)
формат: *.srt
Джерело: (розпізнавання та коригування власне)

Субтитри 2:
мова: англійська
тип: програмні (м'які)
формат: *.srt
Info:

General
Unique ID : 239871767231440457902915457454021593390 (0xB4759F36F66830768DDE4E1C47E8C92E)
Format :
File size : 4.94 GiB
Duration : 1h 12mn
Overall bit rate : 9 780 Kbps
Movie name : Bambi (1941) - Release for HDCLUB
Encoded date : UTC 2012-02-04 03:52:02
Writing application : mkvmerge v4.5.0 ('Speed of Light') зібрано Feb 6 2011 12:51:39
Writing library : libebml v1.2.0 + libmatroska v1.1.0
Video #1
ID : 1
Format : AVC
Format/Info : Advanced Video Codec
Format profile : [email protected]
Format settings, CABAC : Yes
Format settings, ReFrames : 4 frames
Codec ID : V_MPEG4/ISO/AVC
Duration : 1h 12mn
Bit rate : 8 268 Kbps
Width : 1 920 pixels
Height : 1 080 pixels
Display aspect ratio : 16:9
Frame rate : 23.976 fps
Color space : YUV
Chroma subsampling : 4:2:0
Bit depth : 8 bits
Scan type : Progressive
Bits/(Pixel*Frame) : 0.166
Stream size : 4.08 GiB (83%)
Title : Bembi 2 (2006).Tr_01.Video.[Hurtom] by DiGen
Writing library : core 112 r1867 22bfd31
Encoding settings : cabac=1 / ref=4 / deblock=1:1:1 / analyse=0x3:0x133 / me=tesa / subme=10 / psy=1 / psy_rd=0.40:0.00 / mixed_ref=1 / me_range=24 / chroma_me=1 / trellis=2 / 8x8dct=1 / cqm=0 / deadzone=21,11 / fast_pskip=0 / chroma_qp_offset=-2 / threads=4 / sliced_threads=0 / nr=0 / decimate=1 / interlaced=0 / constrained_intra=0 / bframes=2 / b_pyramid=2 / b_adapt=2 / b_bias=0 / direct=3 / weightb=1 / open_gop=0 / weightp=2 / keyint=250 / keyint_min=23 / scenecut=40 / intra_refresh=0 / rc_lookahead=60 / rc=2pass / mbtree=1 / bitrate=8268 / ratetol=1.0 / qcomp=0.60 / qpmin=0 / qpmax=51 / qpstep=4 / cplxblur=20.0 / qblur=0.5 / ip_ratio=1.40 / aq=1:0.60
Language : English
Audio #2
ID : 2
Format :
Format/Info : Digital Theater Systems
Codec ID : A_DTS
Duration : 1h 12mn
Bit rate mode : Constant
Bit rate : 1 510 Kbps
Channel(s) : 6 channels
Channel positions : Front: L C R, Side: L R, LFE
Sampling rate : 48.0 KHz
Bit depth : 24 bits
Compression mode : Lossy
Stream size : 781 MiB (15%)
Title : Bembi 2 (2006).Tr_02.A-Eng.[Hurtom] by DiGen
Language : English
Text #3
ID : 3
Format : UTF-8
Codec ID : S_TEXT/UTF8
Codec ID/Info : UTF-8 Plain Text
Title : Bambi 2 (2006) UKR.BluRay by DiGen
Language : Ukrainian
Скріншоти

Джерело: &
Особиста оцінка: 10 - без зайвих вагань рекомендую всім!
Особиста оцінка: 10 - без зайвих вагань рекомендую всім!



Не забуваємо клацати "Дякую"
Мої наступні релізи:
HD 1080p/720p:

01. The Rock (1996) 720р - перекодування проводитиметься через 9днів
02. Льодовиковий період 2/Ice Age 2 720p (якщо буде укр. доріжка)
03. Робокоп 1,2,3 (1987,1990,1993) 720p
04. Люди в чорному 2/Men in Black 2 720/1080p
05. Shichinin no samura (1954) 720р
06. Autumn in New York 720р
08. Співучасник / Collateral (2004) - як тільки буде укр. звук
09. Some Like It Hot (1959) Blu-Ray - в процесі
10. Смертельні перегони 2000року (1975) 1080р - готове відео, лише треба саби
11. Смертельні перегони 1,2/Death Race 1,2(2008/2010) 720p
12. Святий/The Saint 1080p - готовий, лише треба звук підігнати та оформити
13. Boondock Saints.1999.BD.Rip.720p - якщо буде укр.доріжка
14. Boondock Saints II.All Saints Day.BD.Rip.720p - якщо буде укр.доріжка
15. Rain.Man.1988.720p
16. Flashbacks of a Fool (2008) 720p - готовий, лише треба звук підігнати та оформити
17. Миротворець / The Peacemaker (1997) 720р
18. Blind Fury (1989) 1080і - готовий, лише треба звук підігнати та оформити
19. Requiem for a Dream (2000) 720р

:

01. Формула 51/Formula 51
02. Коефіцієнт інтелекту/IQ (1994) - /720p


Золотий реліз (завантажене не впливає на рейтинг)
 Трекер:    Зареєстрований   

Завантажити / скачати мультфільм українською



відео для новачків



 Зареєстрований:   2012-02-07 00:41
 Розмір:   9.51 GB 
 Оцінка мультфільму:   10/10 (Голосів: 35)
   
Інші релізи
olegwan 
Свій


З нами з: 19.03.09
Востаннє: 18.08.17
Повідомлень: 74

2012-02-06 15:25  
ну то коли, все ж таки, чекати?
vadym66 
Новенький


З нами з: 28.04.10
Востаннє: 17.08.17
Повідомлень: 2

2012-02-06 22:55  
В радянські часи на будках з пивом часто бували таблички з написом "Буду через 10 хвилин".
DiGen 
Модератор HD та координатор Команди HD
Модератор HD та координатор Команди HD


З нами з: 12.11.09
Востаннє: 24.06.13
Повідомлень: 1451

2012-02-06 23:40  
olegwan, vadym66 сьогодні, зараз викладаю
olegwan 
Свій


З нами з: 19.03.09
Востаннє: 18.08.17
Повідомлень: 74

2012-02-07 11:12  
bot
щиро вдячний, мій трьох річний син просто обожнює цей мультик.

vadym66 
Новенький


З нами з: 28.04.10
Востаннє: 17.08.17
Повідомлень: 2

2012-02-07 15:33  
Дуже дякую.
t0mas 
Частий відвідувач


З нами з: 01.11.11
Востаннє: 11.08.17
Повідомлень: 41

2012-02-17 15:32  
Надіюсь пригодяться..

п.с. я не професіонал, якщо що
до першої частини

до другої частини

MutuLI 
Відео Гуртом - фільмокрай
Відео Гуртом - фільмокрай


З нами з: 08.03.09
Востаннє: 19.08.17
Повідомлень: 1301

2012-02-20 23:54  
В описі до першої частини не вказано про субтитри, також може постав трохи більший загальний постер, а то цей шось дуже вже маленький.
DiGen 
Модератор HD та координатор Команди HD
Модератор HD та координатор Команди HD


З нами з: 12.11.09
Востаннє: 24.06.13
Повідомлень: 1451

2012-02-21 00:38  
MutuLI написано:
В описі до першої частини не вказано про субтитри
виправив
MutuLI написано:
також може постав трохи більший загальний постер, а то цей шось дуже вже маленький.
як тільки зроблять - поставлю
MutuLI 
Відео Гуртом - фільмокрай
Відео Гуртом - фільмокрай


З нами з: 08.03.09
Востаннє: 19.08.17
Повідомлень: 1301

2012-02-23 21:14  
DiGen написано:

MutuLI написано:
В описі до першої частини не вказано про субтитри
виправив

Субтитри в описі першої частини ви так і не зазначили.

SimplyAMan 
Новенький


З нами з: 20.12.08
Востаннє: 13.08.17
Повідомлень: 1

2012-03-11 14:47  
А чому в назві " 1080р", а в файлах " 720p." ?
ксюн123 
Новенький


З нами з: 18.06.13
Востаннє: 18.09.15
Повідомлень: 3

2013-06-18 15:19  
як завантажити? нічого не вдається!
kino. 
Модератор відео


З нами з: 27.06.10
Востаннє: 18.08.17
Повідомлень: 2897

2013-06-18 15:39  
ксюн123 Дивись це відео http://www.youtube.com/watch?v=7l6CNKnhngg
salandr 
Відео Гуртом - фільмокрай
Відео Гуртом - фільмокрай


З нами з: 14.10.12
Востаннє: 11.08.17
Повідомлень: 63

2016-11-13 12:41  
Цитата:
Українською мовою мультфільм озвучено "Так треба продакшн" на замовлення відеокомпаніїї "ВІKКОН"
Джерело - VHS

Я щось не розумію - звук із VHS?

Patriot_ukr 
VIP


З нами з: 06.04.15
Востаннє: 19.08.17
Повідомлень: 1759

2016-11-13 15:57  
salandr
Так, ви правильно зрозуміли.

salandr 
Відео Гуртом - фільмокрай
Відео Гуртом - фільмокрай


З нами з: 14.10.12
Востаннє: 11.08.17
Повідомлень: 63

2016-11-14 10:38  
А що VHS мав шестиканальний звук?
staf777 
Відео Гуртом - підтримка та поширення
Відео Гуртом - підтримка та поширення


З нами з: 16.11.16
Востаннє: 16.08.17
Повідомлень: 522

2016-11-17 13:38  
Для малого качаю - дякую дуже хороший мультфільм
Ваш часовий пояс: GMT + 2 Години

Нова тема   Відповісти