Мадагаскар: Трилогія / Madagascar: Trilogy (2005-2008-2012) 1080p Ukr/Eng | Sub Ukr/Eng

Нові коментарі

Нова тема   Відповісти
Автор Повідомлення
ratbol 
Модератор HD


З нами з: 03.02.09
Востаннє: 19.08.17
Повідомлень: 1083

2012-02-01 13:11  
Мадагаскар: Трилогія / Madagascar: Trilogy (2005-2008-2012) 1080p Ukr/Eng | Sub Ukr/Eng

Мадагаскар: Трилогія / Madagascar: Trilogy (2005-2008-2012) 1080p Ukr/Eng | Sub Ukr/Eng


Жанр: комедія, пригоди, сімейний, мультфільм
Країна: США
Кіностудія / кінокомпанія: DreamWorks Animation
Якість:


Мадагаскар / Madagascar (2005) 1080p Ukr/Eng | Sub Ukr/Eng
Мадагаскар / Madagascar (2005) 1080p Ukr/Eng | Sub Ukr/Eng




Режисер: Ерік Дарнел
Актори: Бен Стіллер, Кріс Рок, Девід Швіммер, Джада Пінкетт-Сміт, Гвен Стефані, Енді Ріхтер

Сюжет:
Четверо випещених тварин з центрального зоопарку у Нью-Йорку - лев Алекс, зебра Марті, жирафа Мелман і гіппопотамиха Глорія - вирішують втекти. Опинившись після корабельної аварії на екзотичному острові Мадагаскар, мандрівники з жахом розуміють, що з міськими звичками їм доведеться розпрощатись. Тут немає людей, улюблених кліток, смачної годівлі. З нашими друзями починається таке собі шоу «Останній герой» - їм потрібно вижити у незвичному середовищі існування, де на кожному кроці підстерігає небезпека ...


Тривалість: 01:25:58
Відео:
кодек:
розмір кадру: 1920 х 1080
бітрейт: 10.8 мбіт/с

Аудіо # 1:
мова: українська
переклад: багатоголосий закадровий | Новий канал
кодек: 5.1
бітрейт: 448 кб/с

Аудіо # 2:
мова: англійська
переклад: оригінал
кодек: 5.1
бітрейт: 1510 кб/с

Аудіо # 3:
мова: англійська
переклад: коментарі
кодек: 2.0
бітрейт: 224 кб/с

Субтитри # 1:
мова: українська
тип: програмні (м'які)
формат: *.srt

Субтитри # 2:
мова: англійська
тип: програмні (м'які)
формат: *.srt

Субтитри # 3:
мова: англійська (коментарі)
тип: програмні (м'які)
формат: *.srt
Info
Код:

General
Unique ID                        : 224314998364431049663805036954868728117 (0xA8C17F4AA1717A07808D3123ED9F4135)
Complete name                    : \\Mediaserver\d\Мадагаскар [Madagascar] (2005) 1080p [Ukr, Eng] [Hurtom].
Format                           :
Format version                   : Version 2
File size                        : 7.81 GiB
Duration                         : 1h 25mn
Overall bit rate                 : 13.0 Mbps
Encoded date                     : UTC 2012-01-21 11:15:55
Writing application              : mkvmerge v3.2.0 ('Beginnings') built on Feb 12 2010 16:46:17
Writing library                  : libebml v0.7.9 + libmatroska v0.8.1
Attachment                       : Yes / Yes

Video
ID                               : 1
Format                           : AVC
Format/Info                      : Advanced Video Codec
Format profile                   : [email protected]
Format settings, CABAC           : Yes
Format settings, ReFrames        : 4 frames
Codec ID                         : V_MPEG4/ISO/AVC
Duration                         : 1h 25mn
Bit rate                         : 10.8 Mbps
Width                            : 1 920 pixels
Height                           : 1 080 pixels
Display aspect ratio             : 16:9
Frame rate                       : 23.976 fps
Color space                      : YUV
Chroma subsampling               : 4:2:0
Bit depth                        : 8 bits
Scan type                        : Progressive
Bits/(Pixel*Frame)               : 0.218
Stream size                      : 6.34 GiB (81%)
Writing library                  : core 115 r2008 4c552d8
Encoding settings                : cabac=1 / ref=4 / deblock=1:-1:-1 / analyse=0x3:0x113 / me=umh / subme=10 / psy=1 / psy_rd=0.90:0.00 / mixed_ref=1 / me_range=32 / chroma_me=1 / trellis=2 / 8x8dct=1 / cqm=0 / deadzone=21,11 / fast_pskip=0 / chroma_qp_offset=-4 / threads=6 / sliced_threads=0 / nr=0 / decimate=0 / interlaced=0 / bluray_compat=0 / constrained_intra=0 / bframes=7 / b_pyramid=2 / b_adapt=2 / b_bias=0 / direct=3 / weightb=1 / open_gop=0 / weightp=2 / keyint=250 / keyint_min=23 / scenecut=40 / intra_refresh=0 / rc_lookahead=40 / rc=2pass / mbtree=0 / bitrate=10826 / ratetol=1.0 / qcomp=0.70 / qpmin=0 / qpmax=69 / qpstep=4 / cplxblur=20.0 / qblur=0.5 / vbv_maxrate=50000 / vbv_bufsize=62500 / nal_hrd=none / ip_ratio=1.40 / pb_ratio=1.30 / aq=1:1.00 / zones=117769,123339,q=35
Language                         : English
Default                          : No
Forced                           : No
Color primaries                  : BT.709-5, BT.1361, IEC 61966-2-4, SMPTE RP177
Transfer characteristics         : BT.709-5, BT.1361
Matrix coefficients              : BT.709-5, BT.1361, IEC 61966-2-4 709, SMPTE RP177

Audio #1
ID                               : 2
Format                           : AC-3
Format/Info                      : Audio Coding 3
Mode extension                   : CM (complete main)
Codec ID                         : A_AC3
Duration                         : 1h 25mn
Bit rate mode                    : Constant
Bit rate                         : 448 Kbps
Channel(s)                       : 6 channels
Channel positions                : Front: L C R, Side: L R, LFE
Sampling rate                    : 48.0 KHz
Bit depth                        : 16 bits
Compression mode                 : Lossy
Stream size                      : 275 MiB (3%)
Title                            : багатоголосий закадровий, Новий канал
Language                         : Ukrainian
Default                          : Yes
Forced                           : No

Audio #2
ID                               : 3
Format                           :
Format/Info                      : Digital Theater Systems
Codec ID                         : A_DTS
Duration                         : 1h 25mn
Bit rate mode                    : Constant
Bit rate                         : 1 510 Kbps
Channel(s)                       : 6 channels
Channel positions                : Front: L C R, Side: L R, LFE
Sampling rate                    : 48.0 KHz
Bit depth                        : 24 bits
Compression mode                 : Lossy
Delay relative to video          : 11ms
Stream size                      : 928 MiB (12%)
Title                            : оригнінал
Language                         : English
Default                          : No
Forced                           : No

Audio #3
ID                               : 4
Format                           : AC-3
Format/Info                      : Audio Coding 3
Format profile                   : Dolby Digital
Mode extension                   : CM (complete main)
Codec ID                         : A_AC3
Duration                         : 1h 25mn
Bit rate mode                    : Constant
Bit rate                         : 224 Kbps
Channel(s)                       : 2 channels
Channel positions                : Front: L R
Sampling rate                    : 48.0 KHz
Bit depth                        : 16 bits
Compression mode                 : Lossy
Stream size                      : 138 MiB (2%)
Title                            : коментарі
Language                         : English
Default                          : No
Forced                           : No

Text #1
ID                               : 5
Format                           : UTF-8
Codec ID                         : S_TEXT/UTF8
Codec ID/Info                    : UTF-8 Plain Text
Title                            : українські
Language                         : Ukrainian
Default                          : No
Forced                           : No

Text #2
ID                               : 6
Format                           : UTF-8
Codec ID                         : S_TEXT/UTF8
Codec ID/Info                    : UTF-8 Plain Text
Title                            : англійські
Language                         : English
Default                          : No
Forced                           : No

Text #3
ID                               : 7
Format                           : UTF-8
Codec ID                         : S_TEXT/UTF8
Codec ID/Info                    : UTF-8 Plain Text
Title                            : коментарі
Language                         : English
Default                          : No
Forced                           : No
Мадагаскар 2 / Madagascar: Escape 2 Africa (2008) 1080p Ukr/Eng | Sub Ukr/Eng
Мадагаскар 2 / Madagascar: Escape 2 Africa (2008) 1080p Ukr/Eng | Sub Ukr/Eng





Режисер: Том МакГрат, Ерік Дарнелл
Актори: Бен Стіллер, Саша Барон Коен, Девід Швіммер, Джада Пінкетт-Сміт, Кріс Рок

Сюжет:
Повне небезпек життя на Мадагаскарі не виправдало очікувань звиклих до комфорту Нью-Йоркського зоопарку тварин - лева Алекса, зебри Марті, жирафа Мелмана і бегемотихи Глорії - і друзі вирішують втекти з острова. Завдяки випадку, всю компанію заносить до Африки, де Алекс зустрічає свою сім'ю, з якою він був розлучний в дитинстві. Несподівано для себе Алекс розуміє, що після життя в зоопарку у нього значно менше спільного з родичами, чим йому хотілося б...


Тривалість: 01:29:24
Відео:
кодек:
розмір кадру: 1920 х 1080
бітрейт: 9.8 мбіт/с

Аудіо # 1:
мова: українська
переклад: професійний дубльований | Blu-ray
кодек: 5.1
бітрейт: 640 кб/с

Аудіо # 2:
мова: англійська
переклад: оригінал
кодек: 5.1
бітрейт: 1510 кб/с

Аудіо # 3:
мова: англійська
переклад: коментарі
кодек: Vorbis 2.0
бітрейт: 80 кб/с

Субтитри # 1:
мова: українська
тип: програмні (м'які)
формат: *.srt

Субтитри # 2:
мова: англійська
тип: програмні (м'які)
формат: *.ass
Info
Код:

General
Unique ID                        : 182579145325808474198015887208681578363 (0x895B76DDB2FA8367B929DAA9A1881F7B)
Complete name                    : \\Mediaserver\d\Мадагаскар 2 [Madagascar. Escape 2 Africa] (2008) 1080p [Hurtom].
Format                           :
Format version                   : Version 2
File size                        : 7.39 GiB
Duration                         : 1h 29mn
Overall bit rate mode            : Variable
Overall bit rate                 : 11.8 Mbps
Encoded date                     : UTC 2012-01-21 11:46:50
Writing application              : mkvmerge v3.2.0 ('Beginnings') built on Feb 12 2010 16:46:17
Writing library                  : libebml v0.7.9 + libmatroska v0.8.1
Attachment                       : Yes / Yes / Yes

Video
ID                               : 1
Format                           : AVC
Format/Info                      : Advanced Video Codec
Format profile                   : [email protected]
Format settings, CABAC           : Yes
Format settings, ReFrames        : 4 frames
Format settings, GOP             : N=1
Codec ID                         : V_MPEG4/ISO/AVC
Duration                         : 1h 29mn
Bit rate                         : 9 861 Kbps
Width                            : 1 920 pixels
Height                           : 1 080 pixels
Display aspect ratio             : 16:9
Frame rate                       : 23.976 fps
Color space                      : YUV
Chroma subsampling               : 4:2:0
Bit depth                        : 8 bits
Scan type                        : Progressive
Bits/(Pixel*Frame)               : 0.198
Stream size                      : 6.01 GiB (81%)
Title                            : Release for HDClub
Writing library                  : core 66 r1101M b69548a
Encoding settings                : cabac=1 / ref=4 / deblock=1:-3:-3 / analyse=0x3:0x133 / me=umh / subme=9 / psy_rd=0.8:0.0 / mixed_ref=1 / me_range=24 / chroma_me=1 / trellis=0 / 8x8dct=1 / cqm=0 / deadzone=21,11 / chroma_qp_offset=-2 / threads=6 / nr=0 / decimate=1 / mbaff=0 / bframes=6 / b_pyramid=1 / b_adapt=2 / b_bias=0 / direct=1 / wpredb=1 / keyint=250 / keyint_min=25 / scenecut=40(pre) / rc=2pass / bitrate=9861 / ratetol=1.0 / qcomp=0.60 / qpmin=8 / qpmax=23 / qpstep=4 / cplxblur=20.0 / qblur=0.5 / vbv_maxrate=50000 / vbv_bufsize=50000 / ip_ratio=1.40 / pb_ratio=1.30 / aq=1:0.80
Language                         : English
Default                          : Yes
Forced                           : No

Audio #1
ID                               : 2
Format                           : AC-3
Format/Info                      : Audio Coding 3
Mode extension                   : CM (complete main)
Codec ID                         : A_AC3
Duration                         : 1h 29mn
Bit rate mode                    : Constant
Bit rate                         : 640 Kbps
Channel(s)                       : 6 channels
Channel positions                : Front: L C R, Side: L R, LFE
Sampling rate                    : 48.0 KHz
Bit depth                        : 16 bits
Compression mode                 : Lossy
Stream size                      : 409 MiB (5%)
Title                            : професійний дубльований
Language                         : Ukrainian
Default                          : Yes
Forced                           : No

Audio #2
ID                               : 3
Format                           :
Format/Info                      : Digital Theater Systems
Codec ID                         : A_DTS
Duration                         : 1h 29mn
Bit rate mode                    : Constant
Bit rate                         : 1 510 Kbps
Channel(s)                       : 6 channels
Channel positions                : Front: L C R, Side: L R, LFE
Sampling rate                    : 48.0 KHz
Bit depth                        : 24 bits
Compression mode                 : Lossy
Stream size                      : 965 MiB (13%)
Title                            : оригінал
Language                         : English
Default                          : No
Forced                           : No

Audio #3
ID                               : 4
Format                           : Vorbis
Format settings, Floor           : 1
Codec ID                         : A_VORBIS
Duration                         : 1h 29mn
Bit rate mode                    : Variable
Bit rate                         : 80.0 Kbps
Channel(s)                       : 2 channels
Sampling rate                    : 48.0 KHz
Compression mode                 : Lossy
Stream size                      : 51.2 MiB (1%)
Title                            : коментарі
Writing library                  : libVorbis 1.1.1/1.1.2 (UTC 2005-03-04)
Language                         : English
Default                          : No
Forced                           : No

Text #1
ID                               : 5
Format                           : UTF-8
Codec ID                         : S_TEXT/UTF8
Codec ID/Info                    : UTF-8 Plain Text
Title                            : українські
Language                         : Ukrainian
Default                          : No
Forced                           : No

Text #2
ID                               : 6
Format                           : ASS
Codec ID                         : S_TEXT/ASS
Codec ID/Info                    : Advanced Sub Station Alpha
Compression mode                 : Lossless
Title                            : англійські
Language                         : English
Default                          : No
Forced                           : No
Мадагаскар 3 / Madagascar 3: Europe's Most Wanted (2012) 1080p Ukr/Eng | Sub Ukr/Eng
Мадагаскар 3 / Madagascar 3: Europe's Most Wanted (2012) 1080p Ukr/Eng | Sub Ukr/Eng


Жанр: анімація, комедія, пригоди
Країна: США



Кіностудія / кінокомпанія: DreamWorks Animation, Pacific Data Images (PDI)
Режисер: Ерік Дарнелл, Том МакГрат, Конрад Вернон
Актори: Бен Стіллер, Кріс Рок, Девід Швіммер, Джада Пінкетт Сміт, Саша Барон Коен, Енді Ріхтер, Том МакГрат та інші.

Сюжет:
Лев Алекс, зебра Марті, гіппопотамиха Глорія і жираф Мельман, а також король Джуліан, Моріс, Морт і Пінгвіни все ще намагаються повернутися в Нью-Йорк. На цей раз їх шлях пройде через Європу, де вони відкриють свій цирк.


Тривалість: 01:33:24
Якість:
Відео:
кодек:
розмір кадру: 1920 х 1080
бітрейт: 11.5 Мб/с

Аудіо # 1:
мова: українська
переклад: професійний дубльований | Blu-ray
кодек: 5.1
бітрейт: 640 кб/с

Аудіо # 2:
мова: англійська
переклад: оригінал
кодек: 5.1
бітрейт: 640 кб/с

Аудіо # 3:
мова: англійська
переклад: коментарі
кодек: 2.0
бітрейт: 224 кб/с

Субтитри # 1-2:
мова: українська (надписи та інше, повні)
тип: програмні (м'які)
формат: *.srt

Субтитри # 3:
мова: англійська
тип: програмні (м'які)
формат: *.srt

Info
Код:
Загальна інформація
Унікальний ID                    : 254362365644290767542118909448129213161 (0xBF5C68E042D1A398AE996B1F0145F2E9)
Повна назва                      : E:\CARTOONS [UKR]\Madagascar. Trilogy (2005-2008-2012) 1080p [Hurtom]\Madagascar 3. Europe's Most Wanted (2012) [Ukr, Eng, Com. Sub - Ukr, Eng] 1080р [Hurtom].
Формат                           :
Версія формату                   : Version 2
Розмір файлу                     : 8.48 ГіБ
Тривалість                       : 1 год.
Загальний бітрейт                : 13.0 Мбіт/сек
Назва фільму                     : Madagascar 3: Europe's Most Wanted (2012)
Дата кодування                   : UTC 2012-10-15 20:07:43
Програма кодування               : mkvmerge v5.8.0 ('No Sleep / Pillow') built on Sep  2 2012 15:37:04
Бібліотека кодування             : libebml v1.2.3 + libmatroska v1.3.0

Відео
Ідентифікатор                    : 1
Формат                           : AVC
Формат/Відомості                 : Advanced Video Codec
Профіль формату                  : [email protected]
Налаштування формату, CABAC      : Так
Налаштування формату, ReFrames   : 4 кадр(-и,-ів)
Ідентифікатор кодеку             : V_MPEG4/ISO/AVC
Тривалість                       : 1 год.
Бітрейт                          : 11.5 Мбіт/сек
Ширина кадру                     : 1 920 пікс.
Висота кадру                     : 1 080 пікс.
Співвідношення сторін екрану     : 16:9
Частота кадрів                   : 23.976 кадр/сек
Простір кольору                  : YUV
Субдискретизація хроматичності   : 4:2:0
Бітова глибина                   : 8 біт
Тип сканування                   : Прогресивний
Біт/(Пікселі*Кадри)              : 0.231
Розмір потоку                    : 7.33 ГіБ (86%)
Бібліотека кодування             : core 125 r2208 d9d2288
Налаштування бібліот. кодування  : cabac=1 / ref=4 / deblock=1:-3:-3 / analyse=0x3:0x113 / me=umh / subme=10 / psy=1 / psy_rd=1.05:0.10 / mixed_ref=1 / me_range=48 / chroma_me=1 / trellis=2 / 8x8dct=1 / cqm=0 / deadzone=21,11 / fast_pskip=0 / chroma_qp_offset=-2 / threads=12 / lookahead_threads=2 / sliced_threads=0 / nr=0 / decimate=1 / interlaced=0 / bluray_compat=0 / constrained_intra=0 / bframes=6 / b_pyramid=2 / b_adapt=2 / b_bias=0 / direct=3 / weightb=1 / open_gop=0 / weightp=2 / keyint=250 / keyint_min=23 / scenecut=40 / intra_refresh=0 / rc_lookahead=40 / rc=2pass / mbtree=0 / bitrate=11507 / ratetol=2.0 / qcomp=0.70 / qpmin=0 / qpmax=69 / qpstep=4 / cplxblur=20.0 / qblur=0.5 / vbv_maxrate=40000 / vbv_bufsize=30000 / nal_hrd=none / ip_ratio=1.40 / pb_ratio=1.30 / aq=2:1.00
Мова                             : English
Default                          : Так
Forced                           : Ні

Аудіо #1
Ідентифікатор                    : 2
Формат                           : AC-3
Формат/Відомості                 : Audio Coding 3
Профіль                          : CM (complete main)
Ідентифікатор кодеку             : A_AC3
Тривалість                       : 1 год.
Режим розрахунку бітрейта        : Постійний (CBR)
Бітрейт                          : 640 Кбіт/сек
Кількість каналів                : 6 канал(-и,-ів)
Позиції каналів                  : Front: L C R, Side: L R, LFE
Частота дискретизації            : 48.0 кГц
Бітова глибина                   : 16 біт
Тип стиснення                    : Із втратами
Розмір потоку                    : 428 МіБ (5%)
Заголовок                        : 5.1 [640 Kbps] — професійний дубльований | Blu-ray
Мова                             : Ukrainian
Default                          : Так
Forced                           : Ні

Аудіо #2
Ідентифікатор                    : 3
Формат                           : AC-3
Формат/Відомості                 : Audio Coding 3
Профіль                          : CM (complete main)
Ідентифікатор кодеку             : A_AC3
Тривалість                       : 1 год.
Режим розрахунку бітрейта        : Постійний (CBR)
Бітрейт                          : 640 Кбіт/сек
Кількість каналів                : 6 канал(-и,-ів)
Позиції каналів                  : Front: L C R, Side: L R, LFE
Частота дискретизації            : 48.0 кГц
Бітова глибина                   : 16 біт
Тип стиснення                    : Із втратами
Розмір потоку                    : 428 МіБ (5%)
Заголовок                        : 5.1 [640 Kbps] — оригінал
Мова                             : English
Default                          : Ні
Forced                           : Ні

Аудіо #3
Ідентифікатор                    : 4
Формат                           : AC-3
Формат/Відомості                 : Audio Coding 3
Профіль                          : CM (complete main)
Ідентифікатор кодеку             : A_AC3
Тривалість                       : 1 год.
Режим розрахунку бітрейта        : Постійний (CBR)
Бітрейт                          : 224 Кбіт/сек
Кількість каналів                : 2 канал(-и,-ів)
Позиції каналів                  : Front: L R
Частота дискретизації            : 48.0 кГц
Бітова глибина                   : 16 біт
Тип стиснення                    : Із втратами
Розмір потоку                    : 150 МіБ (2%)
Заголовок                        : 2.0 [224 Kbps] — коментарі
Мова                             : English
Default                          : Ні
Forced                           : Ні

Текст #1
Ідентифікатор                    : 5
Формат                           : UTF-8
Ідентифікатор кодеку             : S_TEXT/UTF8
Ідентифікатор кодеку/Відомості   : UTF-8 Plain Text
Заголовок                        : Надписи та інше
Мова                             : Ukrainian
Default                          : Так
Forced                           : Ні

Текст #2
Ідентифікатор                    : 6
Формат                           : UTF-8
Ідентифікатор кодеку             : S_TEXT/UTF8
Ідентифікатор кодеку/Відомості   : UTF-8 Plain Text
Заголовок                        : Blu-ray
Мова                             : Ukrainian
Default                          : Ні
Forced                           : Ні

Текст #3
Ідентифікатор                    : 7
Формат                           : UTF-8
Ідентифікатор кодеку             : S_TEXT/UTF8
Ідентифікатор кодеку/Відомості   : UTF-8 Plain Text
Мова                             : English
Default                          : Ні
Forced                           : Ні

Меню
00:00:00.000                     : en:00:00:00.000
00:05:16.316                     : en:00:05:16.316
00:10:51.985                     : en:00:10:51.985
00:19:46.310                     : en:00:19:46.310
00:27:49.835                     : en:00:27:49.835
00:32:50.552                     : en:00:32:50.552
00:40:34.974                     : en:00:40:34.974
00:46:51.976                     : en:00:46:51.976
00:52:00.534                     : en:00:52:00.534
00:58:55.157                     : en:00:58:55.157
01:00:23.411                     : en:01:00:23.411
01:04:19.314                     : en:01:04:19.314
01:10:59.672                     : en:01:10:59.672
01:15:30.317                     : en:01:15:30.317
01:21:09.782                     : en:01:21:09.782
01:22:48.630                     : en:01:22:48.630




Джерело:




Робота над релізом:
xslim — запис звуку з ТБ для першої частини, синхронізнація;
leroykendall — поправка синхронізації


Джерело: &
Особиста оцінка: 10 - без зайвих вагань рекомендую всім!


Бронзовий реліз (на рейтинг впливає 75% завантаженого)
 Трекер:    Зареєстрований   

Завантажити / скачати мультфільм українською



відео для новачків



 Зареєстрований:   2012-10-16 10:48
 Розмір:   23.84 GB 
 Оцінка мультфільму:   9.7/10 (Голосів: 34)
   
SuperContik 
VIP


З нами з: 25.02.08
Востаннє: 02.08.17
Повідомлень: 332

2012-02-01 14:35  
Оооо мадагаскар) забираю.
Віктор 
Відео Гуртом - субтитрування
Відео Гуртом - субтитрування


З нами з: 09.01.10
Востаннє: 11.08.17
Повідомлень: 8686

2012-02-01 15:43  
Дав бронзу бо дилогія.
ratbol 
Модератор HD


З нами з: 03.02.09
Востаннє: 19.08.17
Повідомлень: 1083

2012-10-16 10:55  
Додано 3 частину.
Попередні частини лише перейменовано.

oleg.plavkov 
Відео Гуртом - фільмокрай
Відео Гуртом - фільмокрай


З нами з: 04.01.12
Востаннє: 19.08.17
Повідомлень: 304

2012-10-16 20:09  
Тепер можна давати [font=English Script]срібло[/font]!!
leroykendall 
Модератор HD


З нами з: 03.01.11
Востаннє: 04.08.17
Повідомлень: 750

2012-10-16 23:50  
oleg.plavkov
Це чого ще? За правилами тут тверда бронза.

voll18 
Новенький


З нами з: 08.02.12
Востаннє: 10.08.17
Повідомлень: 1

2013-01-15 12:57  
чи можна 1 частину окремо завантажити ?
RobertMenus 
Відео Гуртом - субтитрування
Відео Гуртом - субтитрування


З нами з: 08.03.11
Востаннє: 19.08.17
Повідомлень: 79

2013-01-15 18:05  
voll18
судячи по тому. що роздається трьома файлами, а не образом, то думаю, що можна.

BMK12 
Відео Гуртом - підтримка та поширення
Відео Гуртом - підтримка та поширення


З нами з: 13.04.09
Востаннє: 19.08.17
Повідомлень: 3110

2013-11-16 12:19  
Ще б 720р.
Ваш часовий пояс: GMT + 2 Години

Нова тема   Відповісти