Мами застрягли на Марсі / Mars Needs Moms (2011) 720p Ukr/Eng | Sub Ukr/Eng

Нові коментарі

Нова тема   Відповісти
Автор Повідомлення
braveboy 
Відео Гуртом - команда HD
Відео Гуртом - команда HD


З нами з: 15.06.10
Востаннє: 13.08.17
Повідомлень: 949

2012-01-29 01:54  

Мами застрягли на Марсі / Mars Needs Moms (2011) 720p Ukr/Eng | Sub Ukr/Eng


Мами застрягли на Марсі / Mars Needs Moms (2011) 720p Ukr/Eng | Sub Ukr/Eng


Жанр: Пригоди, Комедія, Анімація
Країна: США




Кіностудія / кінокомпанія: ImageMovers, Walt Disney Productions; мейджор – Buena Vista Sony Pictures Releasing
Режисер: Саймон Веллс
Актори: Сет Ґрін, Ден Фоґлер, Джоан К’юзак, Елізабет Арнуа, Мінді Стерлінґ


Сюжет:
Їсти мерзенну брокколі, виносити сміття, рано лягати спати - кому взагалі потрібні мами, що змушують це робити? Так думав Майло, поки не виявив, що його маму викрали марсіани. Ось тут і виявилося, що йому належить відправитися на іншу планету, щоб знайти маму і повернути її додому.



Тривалість: 01:28:04
Якість: 720p
Відео:
кодек:
розмір кадру: 1280 x 534
бітрейт: 4999 кб/с

Аудіо # 1:
мова: українська
переклад: професійний дубльований
кодек: 5.1
бітрейт: 384 кб/с

Аудіо # 2:
мова: англійська
переклад: оригінал
кодек: 5.1
бітрейт: 1510 кб/с

Джерело озвучення:


Субтитри:
мова: українська
тип: програмні (м'які)
формат: *.srt

Субтитри:
мова: англійська
тип: програмні (м'які)
формат: *.srt
Info
General
Unique ID : 201827780910295440744153709076011319864 (0x97D69DDF298C72BBB7939CBA6F088238)
Complete name : E:\Temp\Mars Needs Moms (2011) [Ukr,Eng Sub Ukr,Eng] 720p [HDCLUB].
Format :
Format version : Version 2
File size : 4.24 GiB
Duration : 1h 28mn
Overall bit rate : 6 895 Kbps
Movie name : Mars Needs Mom (2011) 720p Release for HDCLUB
Encoded date : UTC 2012-01-28 18:31:16
Writing application : mkvmerge v5.0.1 ('Es ist Sommer') built on Oct 9 2011 11:55:43
Writing library : libebml v1.2.2 + libmatroska v1.3.0

Video
ID : 1
Format : AVC
Format/Info : Advanced Video Codec
Format profile : [email protected]
Format settings, CABAC : Yes
Format settings, ReFrames : 5 frames
Codec ID : V_MPEG4/ISO/AVC
Duration : 1h 28mn
Bit rate : 4 999 Kbps
Width : 1 280 pixels
Height : 534 pixels
Display aspect ratio : 2.40:1
Original display aspect ratio : 2.40:1
Frame rate : 23.976 fps
Color space : YUV
Chroma subsampling : 4:2:0
Bit depth : 8 bits
Scan type : Progressive
Bits/(Pixel*Frame) : 0.305
Stream size : 2.99 GiB (71%)
Title : Mars Needs Mom (2011) 720p Release for HDCLUB
Writing library : core 116 r2019 9cc407d
Encoding settings : cabac=1 / ref=5 / deblock=1:-2:-2 / analyse=0x3:0x133 / me=umh / subme=10 / psy=1 / psy_rd=1.10:0.10 / mixed_ref=1 / me_range=32 / chroma_me=1 / trellis=2 / 8x8dct=1 / cqm=0 / deadzone=21,11 / fast_pskip=1 / chroma_qp_offset=-3 / threads=12 / sliced_threads=0 / nr=0 / decimate=1 / interlaced=0 / bluray_compat=0 / constrained_intra=0 / bframes=7 / b_pyramid=2 / b_adapt=2 / b_bias=0 / direct=3 / weightb=1 / open_gop=1 / weightp=2 / keyint=250 / keyint_min=23 / scenecut=40 / intra_refresh=0 / rc_lookahead=80 / rc=2pass / mbtree=1 / bitrate=4999 / ratetol=1.0 / qcomp=0.60 / qpmin=0 / qpmax=69 / qpstep=4 / cplxblur=20.0 / qblur=0.5 / ip_ratio=1.40 / aq=2:0.70
Language : English
Default : No
Forced : No

Audio #1
ID : 2
Format : AC-3
Format/Info : Audio Coding 3
Mode extension : CM (complete main)
Codec ID : A_AC3
Duration : 1h 28mn
Bit rate mode : Constant
Bit rate : 384 Kbps
Channel(s) : 6 channels
Channel positions : Front: L C R, Side: L R, LFE
Sampling rate : 48.0 KHz
Bit depth : 16 bits
Compression mode : Lossy
Stream size : 242 MiB (6%)
Title : 5.1 @ 384 kbps
Language : Ukrainian
Default : Yes
Forced : No

Audio #2
ID : 3
Format :
Format/Info : Digital Theater Systems
Codec ID : A_DTS
Duration : 1h 28mn
Bit rate mode : Constant
Bit rate : 1 510 Kbps
Channel(s) : 6 channels
Channel positions : Front: L C R, Side: L R, LFE
Sampling rate : 48.0 KHz
Bit depth : 24 bits
Compression mode : Lossy
Delay relative to video : 11ms
Stream size : 951 MiB (22%)
Title : 5.1 @ 1536 kbps
Language : English
Default : No
Forced : No

Text #1
ID : 4
Format : UTF-8
Codec ID : S_TEXT/UTF8
Codec ID/Info : UTF-8 Plain Text
Title : Full
Language : Ukrainian
Default : No
Forced : No

Text #2
ID : 5
Format : UTF-8
Codec ID : S_TEXT/UTF8
Codec ID/Info : UTF-8 Plain Text
Title : Full
Language : English
Default : No
Forced : No

Menu
00:00:00.000 : en:00:00:00.000
00:04:04.578 : en:00:04:04.578
00:09:15.013 : en:00:09:15.013
00:13:56.836 : en:00:13:56.836
00:19:13.402 : en:00:19:13.402
00:28:13.901 : en:00:28:13.901
00:34:29.776 : en:00:34:29.776
00:40:19.250 : en:00:40:19.250
00:47:15.624 : en:00:47:15.624
00:56:49.781 : en:00:56:49.781
01:09:03.348 : en:01:09:03.348
01:21:25.422 : en:01:21:25.422
Скріншоти






Джерело:
Особиста оцінка: 0 - не дивився


 Трекер:    Зареєстрований   

Завантажити / скачати мультфільм українською



відео для новачків



 Зареєстрований:   2012-01-29 01:54
 Розмір:   4.24 GB 
 Оцінка мультфільму:   9.5/10 (Голосів: 13)
   
Віктор 
Відео Гуртом - субтитрування
Відео Гуртом - субтитрування


З нами з: 09.01.10
Востаннє: 11.08.17
Повідомлень: 8686

2012-01-29 02:01  
Оскільки є медіаінфо цього ріпу - https://toloka.to/t26438 (за що окрема подяка leroykendall) за яким видно що це сцен-ріп, той іде в архів. Цей залишаємо.
MI
General
Complete name : V:\Mars Needs Moms (2011) [ukr,eng] 720p [ Hurtom ] by Jatx.
Format :
File size : 4.64 GiB
Duration : 1h 28mn
Overall bit rate : 7 545 Kbps
Movie name : Mars Needs Moms (2011) Release for Uniongang.tv
Encoded date : UTC 2011-07-18 13:36:50
Writing application : mkvmerge v4.1.0 ('Boiling Point') збірка від Jul 1 2010 14:37:28
Writing library : libebml v1.0.0 + libmatroska v1.0.0

Video
ID : 1
Format : AVC
Format/Info : Advanced Video Codec
Format profile : [email protected]
Format settings, CABAC : Yes
Format settings, ReFrames : 5 frames
Muxing mode : Container [email protected]
Codec ID : V_MPEG4/ISO/AVC
Duration : 1h 27mn
Bit rate : 5 437 Kbps
Nominal bit rate : 5 589 Kbps
Width : 1 280 pixels
Height : 536 pixels
Display aspect ratio : 2.35:1
Frame rate : 23.976 fps
Resolution : 24 bits
Colorimetry : 4:2:0
Scan type : Progressive
Bits/(Pixel*Frame) : 0.331
Stream size : 3.34 GiB (72%)
Title : Mars Needs Moms (2011) Release for Uniongang.tv
Writing library : core 116 r2019 9cc407d
Encoding settings : cabac=1 / ref=5 / deblock=1:0:0 / analyse=0x3:0x133 / me=umh / subme=7 / psy=1 / psy_rd=1.00:0.00 / mixed_ref=1 / me_range=16 / chroma_me=1 / trellis=1 / 8x8dct=1 / cqm=0 / deadzone=21,11 / fast_pskip=0 / chroma_qp_offset=-2 / threads=12 / sliced_threads=0 / nr=0 / decimate=1 / interlaced=0 / bluray_compat=0 / constrained_intra=0 / bframes=3 / b_pyramid=2 / b_adapt=1 / b_bias=0 / direct=1 / weightb=1 / open_gop=0 / weightp=2 / keyint=250 / keyint_min=23 / scenecut=40 / intra_refresh=0 / rc_lookahead=40 / rc=2pass / mbtree=1 / bitrate=5589 / ratetol=1.0 / qcomp=0.60 / qpmin=0 / qpmax=69 / qpstep=4 / cplxblur=20.0 / qblur=0.5 / ip_ratio=1.40 / aq=1:1.00

Audio #1
ID : 2
Format : AC-3
Format/Info : Audio Coding 3
Codec ID : A_AC3
Duration : 1h 28mn
Bit rate mode : Constant
Bit rate : 448 Kbps
Channel(s) : 6 channels
Channel positions : Front: L C R, Surround: L R, LFE
Sampling rate : 48.0 KHz
Stream size : 282 MiB (6%)
Language : Ukrainian

Audio #2
ID : 3
Format :
Format/Info : Digital Theater Systems
Codec ID : A_DTS
Duration : 1h 28mn
Bit rate mode : Constant
Bit rate : 1 510 Kbps
Channel(s) : 6 channels
Channel positions : Front: L C R, Surround: L R, LFE
Sampling rate : 48.0 KHz
Resolution : 24 bits
Video delay : 22ms
Stream size : 951 MiB (20%)
Title : English: , 1510 kb/s (6 ch)

braveboy 
Відео Гуртом - команда HD
Відео Гуртом - команда HD


З нами з: 15.06.10
Востаннє: 13.08.17
Повідомлень: 949

2012-01-29 02:08  
w2958l написано:

Audio #1
ID : 2
Format : AC-3
Format/Info : Audio Coding 3
Codec ID : A_AC3
Duration : 1h 28mn
Bit rate mode : Constant
Bit rate : 448 Kbps
Channel(s) : 6 channels
Channel positions : Front: L C R, Surround: L R, LFE
Sampling rate : 48.0 KHz
Stream size : 282 MiB (6%)
Language : Ukrainian

там навіть українська доріжка роздута на DVD доріжка з бітрейтом 384 кб/с

Віктор 
Відео Гуртом - субтитрування
Відео Гуртом - субтитрування


З нами з: 09.01.10
Востаннє: 11.08.17
Повідомлень: 8686

2012-01-29 02:12  
gladunyak написано:
там навіть українська доріжка роздута на DVD доріжка з бітрейтом 384 кб/с


А в оформлені вказано 384, тому, завжди, коли є такі суперечливі ріпи потрібне медіаінфо.

Gybalj 
Свій


З нами з: 14.05.09
Востаннє: 14.08.17
Повідомлень: 56

2013-09-15 13:21  
Чому в 3Д немає цього мультфільму і взагалі мало фільмів з 3Д на сайті, по можливості викладайте по більше бо на російських є а на гуртом чомусь немаєSad (1)
Drool 
VIP


З нами з: 17.04.10
Востаннє: 18.08.17
Повідомлень: 1368

2013-09-18 10:06  
Gybalj написано:
Чому в 3Д немає цього мультфільму і взагалі мало фільмів з 3Д на сайті, по можливості викладайте по більше бо на російських є а на гуртом чомусь немає

Якщо дозволяє канал - чому б не зробити такий ремукс з українською доріжкою та викласти тут?

P.S. Хто просив цей мульт в 3D? Ось: https://toloka.to/t50109

Ваш часовий пояс: GMT + 2 Години

Нова тема   Відповісти