Пригоди Десперо / The Tale of Despereaux (2008) 720p Ukr/Eng | Sub Ukr/Eng

Нові коментарі

Нова тема   Відповісти
Автор Повідомлення
braveboy 
Відео Гуртом - команда HD
Відео Гуртом - команда HD


З нами з: 15.06.10
Востаннє: 13.08.17
Повідомлень: 949

2012-01-21 22:48  

Пригоди Десперо / The Tale of Despereaux (2008) 720p Ukr/Eng | Sub Ukr/Eng





«Маленький герой. Велике серце. »


Жанр: фентезі, комедія, пригоди, сімейний, мультфільм
Країна: Великобританія США



Кіностудія / кінокомпанія: Framestore Feature Animation
Режисер: Сем Фелл, Роберт Стівенхейген
Актори: Меттью Бродерік, Дастін Хофман, Ема Уотсон, Трейсі Улмен, Кевін Клайн, Вільям Х. Мейсі, Стенлі Тучі, Кіаран Хіндс, Роббі Колтрейн, Тоні Хейл


Бюджет $ 60 млн
Збори в США $ 50877145
Збори у світі + $ 33 772 260 = $ 84 649 405


Сюжет:
В одному селі, що розкинулося під замком, народилося мишеня на ім'я Десперо. Ух ти, він такий солоденький, а подивіться на його вуха! У світі мишей можна жити правильно і неправильно.Але Десперо все робить по-своєму. У світі є стільки чудових речей, яких варто боятися, але тільки не Десперо. Маленький мишеня Десперо - виняток серед мишей! Десперо - джентльмен! Не злякався, не побоявся, не втік ...



Тривалість: 01:33:35
Якість: 720p
Відео:
кодек:
розмір кадру: 1280 x 544
бітрейт: 4963 кб/с

Аудіо # 1:
мова: українська
переклад: багатоголосий закадровий
кодек: 2.0
бітрейт: 192 кб/с

Аудіо # 2:
мова: англійська
переклад: оригінал
кодек: 5.1
бітрейт: 1510 кб/с

Джерело озвучення:


Субтитри:
мова: українська
тип: програмні (м'які)
формат: *.srt
переклад: (braveboy)

Субтитри:
мова: англійська
тип: програмні (м'які)
формат: *.srt

Пригоди Десперо / The Tale of Despereaux (2008) 720p Ukr/Eng | Sub Ukr/Eng
log

[info]: frame I:15 Avg QP: 8.81 size:195183
[info]: frame P:319 Avg QP:11.53 size: 65491
[info]: frame B:1089 Avg QP:14.68 size: 12090
[info]: consecutive B-frames: 1.5% 2.8% 7.4% 34.9% 13.4% 40.1%
[info]: mb I I16..4: 5.9% 60.5% 33.6%
[info]: mb P I16..4: 1.1% 11.1% 2.7% P16..4: 30.7% 21.6% 25.0% 2.7% 2.2% skip: 3.0%
[info]: mb B I16..4: 0.1% 1.0% 0.3% B16..8: 33.2% 14.2% 4.6% direct: 3.8% skip:42.7% L0:42.7% L1:41.4% BI:15.9%
[info]: 8x8 transform intra:70.9% inter:59.0%
[info]: coded y,uvDC,uvAC intra: 91.6% 96.4% 90.9% inter: 28.7% 28.5% 15.4%
[info]: i16 v,h,dc,p: 19% 12% 13% 55%
[info]: i8 v,h,dc,ddl,ddr,vr,hd,vl,hu: 14% 13% 13% 8% 10% 10% 10% 10% 12%
[info]: i4 v,h,dc,ddl,ddr,vr,hd,vl,hu: 10% 9% 6% 9% 15% 13% 13% 11% 12%
[info]: i8c dc,h,v,p: 50% 19% 17% 15%
[info]: Weighted P-Frames: Y:0.0% UV:0.0%
[info]: ref P L0: 53.5% 6.3% 16.4% 7.5% 5.6% 4.5% 3.6% 2.6% 0.1%
[info]: ref B L0: 78.1% 11.2% 5.0% 2.4% 1.8% 1.0% 0.5%
[info]: ref B L1: 92.4% 7.6%
[info]: kb/s:4985.37
Info
Format :
Format version : Version 4 / Version 2
File size : 4.36 GiB
Duration : 1h 33mn
Overall bit rate : 6 668 Kbps
Movie name : The Tale Of Despereaux (2008) 720p by braveboy
Encoded date : UTC 2013-02-23 14:17:02
Writing application : mkvmerge v6.0.0 ('Coming Up For Air') built on Jan 20 2013 09:52:00
Writing library : libebml v1.3.0 + libmatroska v1.4.0

Video
ID : 1
Format : AVC
Format/Info : Advanced Video Codec
Format profile : [email protected]
Format settings, CABAC : Yes
Format settings, ReFrames : 8 frames
Codec ID : V_MPEG4/ISO/AVC
Duration : 1h 33mn
Bit rate : 4 963 Kbps
Width : 1 280 pixels
Height : 544 pixels
Display aspect ratio : 2.35:1
Frame rate mode : Constant
Frame rate : 23.976 fps
Color space : YUV
Chroma subsampling : 4:2:0
Bit depth : 8 bits
Scan type : Progressive
Bits/(Pixel*Frame) : 0.297
Stream size : 3.16 GiB (73%)
Title : The Tale Of Despereaux (2008) 720p by braveboy
Writing library : core 120 r2120 0c7dab9
Encoding settings : cabac=1 / ref=8 / deblock=1:-3:-3 / analyse=0x3:0x133 / me=umh / subme=9 / psy=1 / psy_rd=0.80:0.00 / mixed_ref=1 / me_range=32 / chroma_me=1 / trellis=1 / 8x8dct=1 / cqm=0 / deadzone=21,11 / fast_pskip=0 / chroma_qp_offset=-2 / threads=6 / sliced_threads=0 / nr=0 / decimate=1 / interlaced=0 / bluray_compat=0 / constrained_intra=0 / bframes=5 / b_pyramid=2 / b_adapt=2 / b_bias=0 / direct=1 / weightb=1 / open_gop=0 / weightp=2 / keyint=240 / keyint_min=24 / scenecut=40 / intra_refresh=0 / rc_lookahead=40 / rc=2pass / mbtree=1 / bitrate=4963 / ratetol=1.0 / qcomp=0.60 / qpmin=0 / qpmax=69 / qpstep=4 / cplxblur=20.0 / qblur=0.5 / ip_ratio=1.40 / aq=1:1.00
Default : Yes
Forced : No

Audio #1
ID : 2
Format : AC-3
Format/Info : Audio Coding 3
Mode extension : CM (complete main)
Format settings, Endianness : Big
Codec ID : A_AC3
Duration : 1h 33mn
Bit rate mode : Constant
Bit rate : 192 Kbps
Channel(s) : 2 channels
Channel positions : Front: L R
Sampling rate : 48.0 KHz
Bit depth : 16 bits
Compression mode : Lossy
Stream size : 129 MiB (3%)
Title : 2.0 @ 192 kbps
Language : Ukrainian
Default : Yes
Forced : No

Audio #2
ID : 3
Format :
Format/Info : Digital Theater Systems
Mode : 16
Format settings, Endianness : Big
Codec ID : A_DTS
Duration : 1h 33mn
Bit rate mode : Constant
Bit rate : 1 509 Kbps
Channel(s) : 6 channels
Channel positions : Front: L C R, Side: L R, LFE
Sampling rate : 48.0 KHz
Bit depth : 24 bits
Compression mode : Lossy
Stream size : 1 010 MiB (23%)
Title : 5.1 @ 1510 kbps
Language : English
Default : No
Forced : No

Text #1
ID : 4
Format : UTF-8
Codec ID : S_TEXT/UTF8
Codec ID/Info : UTF-8 Plain Text
Title : Full
Language : Ukrainian
Default : No
Forced : No

Text #2
ID : 5
Format : UTF-8
Codec ID : S_TEXT/UTF8
Codec ID/Info : UTF-8 Plain Text
Title : Full
Language : English
Default : No
Forced : No

Menu
00:00:00.000 : en:00:00:00.000
00:05:00.000 : en:00:05:00.000
00:10:00.000 : en:00:10:00.000
00:15:00.000 : en:00:15:00.000
00:20:00.000 : en:00:20:00.000
00:25:00.000 : en:00:25:00.000
00:30:00.000 : en:00:30:00.000
00:35:00.000 : en:00:35:00.000
00:40:00.000 : en:00:40:00.000
00:45:00.000 : en:00:45:00.000
00:50:00.000 : en:00:50:00.000
00:55:00.000 : en:00:55:00.000
01:00:00.000 : en:01:00:00.000
01:05:00.000 : en:01:05:00.000
01:10:00.000 : en:01:10:00.000
01:15:00.000 : en:01:15:00.000
01:20:00.000 : en:01:20:00.000
01:25:00.000 : en:01:25:00.000
01:30:00.000 : en:01:30:00.000
Tрейлер український

Скріншоти:












720p by braveboy
Цитата:

* Source: The Tale of Despereaux (2008) BD-Remux 1080p

* Збережено оригінальні чаптери як на Blu-Ray

Особиста оцінка: 10 - без зайвих вагань рекомендую всім!
Користувачам ОС Windows рекомендується переглядати через Media Player Classic або VLC
Для того щоб видалити непотрібну доріжку чи субтитри користуємось програмою MKVtoolnix інструкція тут



 Трекер:    Зареєстрований   

Завантажити / скачати мультфільм українською



відео для новачків



 Зареєстрований:   2013-02-23 18:29
 Розмір:   4.36 GB 
 Оцінка мультфільму:   9.8/10 (Голосів: 14)
   
Інші релізи
   Пригоди Десперо / The Tale of Despereaux (2008) Ukr/Eng Zetonik-z  8 / 0   1.45 GB   2012-01-09 11:44 
ratbol 
Модератор HD


З нами з: 03.02.09
Востаннє: 20.08.17
Повідомлень: 1083

2012-01-23 22:14  
Ей, що сталось? на 97 потухло...
Можна довантажити 3 відсотки?!

pentagon 
Частий відвідувач


З нами з: 08.12.09
Востаннє: 20.08.17
Повідомлень: 36

2012-01-26 09:33  
А 1080p буде?
braveboy 
Відео Гуртом - команда HD
Відео Гуртом - команда HD


З нами з: 15.06.10
Востаннє: 13.08.17
Повідомлень: 949

2012-01-26 15:37  
pentagon написано:
А 1080p буде?

можливо буде але не від мене

leroykendall 
Модератор HD


З нами з: 03.01.11
Востаннє: 20.08.17
Повідомлень: 750

2013-02-23 21:49  
braveboy
З якої причини був перезалитий торрент?

braveboy 
Відео Гуртом - команда HD
Відео Гуртом - команда HD


З нами з: 15.06.10
Востаннє: 13.08.17
Повідомлень: 949

2013-02-23 21:54  
leroykendall написано:

braveboy
З якої причини був перезалитий торрент?

замінив укр. доріжку на більш якіснішу

ratbol 
Модератор HD


З нами з: 03.02.09
Востаннє: 20.08.17
Повідомлень: 1083

2013-02-23 22:38  
leroykendall
Тут з нового запису доріжка, у попередній десь був дроп.

leroykendall 
Модератор HD


З нами з: 03.01.11
Востаннє: 20.08.17
Повідомлень: 750

2013-02-24 00:19  
Дякую. Зрозумів. Забираю оновлений реліз.
Ваш часовий пояс: GMT + 2 Години

Нова тема   Відповісти