Кунг-фу Панда: Святковий випуск / Kung Fu Panda Holiday Special (2010) 720p Ukr/Eng | Sub Eng

Нові коментарі

Нова тема   Відповісти
Автор Повідомлення
Anonymous 







2012-01-09 00:10  
Кунг-фу Панда: Святковий випуск / Kung Fu Panda Holiday Special (2010) 720p Ukr/Eng | Sub Eng

Кунг-фу Панда: Святковий випуск / Kung Fu Panda Holiday Special (2010) 720p Ukr/Eng | Sub Eng
Інший постер:
Кунг-фу Панда: Святковий випуск / Kung Fu Panda Holiday Special (2010) 720p Ukr/Eng | Sub Eng
Жанр: анімація, комедія, короткометражні
Країна: США



Кіностудія / кінокомпанія: DreamWorks Animation
Режисер: Тім Джонсон / Tim Johnson
Актори: Джек Блек / Jack Black / Ро, Дастін Хоффман / Dustin Hoffman / Шифу, Анджеліна Джолі / Angelina Jolie / Tigress, Ilana Klusky / Extra

Сюжет:
Кожен рік, По і його батько розвішують іграшки і разом готують суп з локшиною для жителів свого села. Але в цьому році Шифу повідомляє По, що він, як воїн дракона зобов'язаний влаштувати свято в нефритовому палаці. По розривається між обов'язками воїна-дракона і сімейною традицією.


Тривалість: 00:21:02
Якість:
Відео:
кодек:
розмір кадру: 1280x720
бітрейт: 5000 кб/с

Аудіо # 1:
мова: українська | Новий канал
переклад: професійний дубльований
кодек: 2.0
бітрейт: 192 кб/с

Аудіо # 2:
мова: англійська
переклад: оригінал
кодек: 5.1
бітрейт: 384 кб/с

Джерело озвучення:

Субтитри:
мова: англійська
тип: програмні (м'які)
формат: *.ass

Info:

Format :
File size : 839 MiB
Duration : 21mn 2s
Overall bit rate : 5 579 Kbps
Encoded date : UTC 2012-01-08 20:55:59
Writing application : mkvmerge v2.4.2 ('Oh My God') built on Jan 18 2009 17:30:28
Writing library : libebml v0.7.7 + libmatroska v0.8.1
Video #1
ID : 1
Format : AVC
Format/Info : Advanced Video Codec
Format profile : [email protected]
Format settings, CABAC : Yes
Format settings, ReFrames : 8 frames
Muxing mode : Container [email protected]
Codec ID : V_MPEG4/ISO/AVC
Duration : 21mn 0s
Bit rate : 4 892 Kbps
Nominal bit rate : 5 000 Kbps
Width : 1 280 pixels
Height : 720 pixels
Display aspect ratio : 16:9
Frame rate : 23.976 fps
Resolution : 24 bits
Colorimetry : 4:2:0
Scan type : Progressive
Bits/(Pixel*Frame) : 0.221
Stream size : 735 MiB (88%)
Title : Kung Fu Panda Holiday Special (2010) 720p Ukr,Eng Sub Eng
Writing library : core 108 r1790 8eaf8a6
Encoding settings : cabac=1 / ref=8 / deblock=1:-3:-3 / analyse=0x3:0x113 / me=umh / subme=10 / psy=1 / psy_rd=1.00:0.00 / mixed_ref=1 / me_range=24 / chroma_me=1 / trellis=2 / 8x8dct=1 / cqm=0 / deadzone=21,11 / fast_pskip=0 / chroma_qp_offset=-2 / threads=3 / sliced_threads=0 / nr=0 / decimate=0 / interlaced=0 / constrained_intra=0 / bframes=6 / b_pyramid=2 / b_adapt=2 / b_bias=0 / direct=3 / weightb=1 / open_gop=0 / weightp=2 / keyint=250 / keyint_min=23 / scenecut=40 / intra_refresh=0 / rc=2pass / mbtree=0 / bitrate=5000 / ratetol=1.0 / qcomp=0.60 / qpmin=10 / qpmax=51 / qpstep=4 / cplxblur=20.0 / qblur=0.5 / ip_ratio=1.40 / pb_ratio=1.30 / aq=2:0.80
Language : English
Audio #2
ID : 2
Format : AC-3
Format/Info : Audio Coding 3
Codec ID : A_AC3
Duration : 21mn 2s
Bit rate mode : Constant
Bit rate : 192 Kbps
Channel(s) : 2 channels
Channel positions : L R
Sampling rate : 48.0 KHz
Stream size : 28.9 MiB (3%)
Title : 2.0 @ 192 kbps
Language : Ukrainian
Audio #3
ID : 3
Format : AC-3
Format/Info : Audio Coding 3
Codec ID : A_AC3
Duration : 21mn 2s
Bit rate mode : Constant
Bit rate : 384 Kbps
Channel(s) : 6 channels
Channel positions : Front: L C R, Surround: L R, LFE
Sampling rate : 48.0 KHz
Stream size : 57.8 MiB (7%)
Title : 5.1 @ 384 kbps
Language : English
Text #4
ID : 4
Format : ASS
Codec ID : S_TEXT/ASS
Codec ID/Info : Advanced Sub Station Alpha
Title : [Sub Eng]
Language : English
Скріншоти





Особиста оцінка: не дивився
Джерело:


 Трекер:    Зареєстрований   

Завантажити / скачати мультфільм українською



відео для новачків



 Зареєстрований:   2012-01-09 00:10
 Розмір:   839 MB 
 Оцінка мультфільму:   7.8/10 (Голосів: 40)
   
leroykendall 
Модератор HD


З нами з: 03.01.11
Востаннє: 04.08.17
Повідомлень: 750

2012-01-09 01:11  
А старий реліз у "Мультфільми в HD" розділі, хоча і короткометражний.
https://toloka.to/t20184
Може і цей туди?

Anonymous 







2012-01-09 01:49  
leroykendall
напевне таки так

leroykendall 
Модератор HD


З нами з: 03.01.11
Востаннє: 04.08.17
Повідомлень: 750

2012-01-09 02:01  
Гість
Ну то добре. Просто шкода що в Короткометражках немає посилань на "Інші релізи".
Дякую за реліз до речі :-)

DiGen 
Модератор HD та координатор Команди HD
Модератор HD та координатор Команди HD


З нами з: 12.11.09
Востаннє: 24.06.13
Повідомлень: 1451

2012-01-09 12:43  
Джерело релізу не вказане.
Звідки Укр. звук не прописано.

bot 
робот


З нами з: 30.09.07
Востаннє: 26.05.05
Повідомлень: 17368

2012-09-21 15:17  
Тему перенесено з Мультфільми в HD до форуму Неоформлене відео


urij546724

MaxiLong 
Новенький


З нами з: 26.07.09
Востаннє: 09.08.17
Повідомлень: 24

2015-05-14 20:30  
Може хтось візьметься синхронізувати звук з цього ріпу з -ом?
Я пробував самотужки підігнати - не виходить, розсинхрон...

Ваш часовий пояс: GMT + 2 Години

Нова тема   Відповісти