Зустрічі на краю світу / Encounters at the End of the World (2007) 720p Eng | Sub Ukr/Eng

Нові коментарі

Нова тема   Відповісти
Автор Повідомлення
Anonymous 







2012-01-08 18:58  
Зустрічі на краю світу / Encounters at the End of the World (2007) 720p Eng | Sub Ukr/Eng


Зустрічі на краю світу / Encounters at the End of the World (2007) 720p Eng | Sub Ukr/Eng


Жанр: документальний
Країна: США



Кіностудія / кінокомпанія: Discovery Films, Creative Differences Productions, Discovery Channel
Режисер: Вернер Герцоґ (Werner Herzog)
Композитори: Генрі Кайзер (Henry Kaiser) і Дейвід Ліндлі (David Lindley)
Актори: Вернер Герцоґ (Werner Herzog), Дейвід Ейнлі (David Ainley), Семюел С. Бовсер (Samuel S. Bowser), Реґіна Ейсерт (Regina Eisert), Кевін Емері (Kevin Emery) та інші.

Сюжет:
Відомий режисер-документаліст Вернер Герцоґ запрошує вас відкрити з ним холодну і мальовничу землю Заполяр'я. Номінація на премію "Оскар" у категорії найкращий документальний фільм, 2009 року.
Info

Код:

Format                           :
Format version                   : Version 2
File size                        : 4.37 GiB
Duration                         : 1h 40mn
Overall bit rate mode            : Variable
Overall bit rate                 : 6 218 Kbps
Movie name                       : Encounters at the End of the World (2007) [Eng. Ukr.Sub] 720p [Hurtom, HDCLUB]
Encoded date                     : UTC 2012-01-08 16:21:11
Writing application              : mkvmerge v5.0.1 ('Es ist Sommer') built on Oct  9 2011 11:55:43
Writing library                  : libebml v1.2.2 + libmatroska v1.3.0
Attachment                       : Yes / Yes / Yes

Video
ID                               : 1
Format                           : AVC
Format/Info                      : Advanced Video Codec
Format profile                   : [email protected]
Format settings, CABAC           : Yes
Format settings, ReFrames        : 9 frames
Codec ID                         : V_MPEG4/ISO/AVC
Duration                         : 1h 40mn
Bit rate                         : 4 636 Kbps
Width                            : 1 276 pixels
Height                           : 720 pixels
Display aspect ratio             : 16:9
Frame rate                       : 23.976 fps
Color space                      : YUV
Chroma subsampling               : 4:2:0
Bit depth                        : 8 bits
Scan type                        : Progressive
Bits/(Pixel*Frame)               : 0.210
Stream size                      : 3.17 GiB (72%)
Title                            : Encounters at the End of the World (2007) [Eng. Ukr.Sub] 720p [Hurtom, HDCLUB]
Writing library                  : core 68 r1195M 5d75a9b
Encoding settings                : cabac=1 / ref=9 / deblock=1:-3:-3 / analyse=0x3:0x113 / me=umh / subme=9 / psy_rd=0.7:0.0 / mixed_ref=1 / me_range=48 / chroma_me=1 / trellis=2 / 8x8dct=1 / cqm=0 / deadzone=21,11 / chroma_qp_offset=-2 / threads=6 / nr=0 / decimate=0 / mbaff=0 / bframes=6 / b_pyramid=1 / b_adapt=2 / b_bias=0 / direct=3 / wpredb=1 / keyint=250 / keyint_min=25 / scenecut=40 / rc=2pass / bitrate=4636 / ratetol=1.0 / qcomp=0.60 / qpmin=10 / qpmax=51 / qpstep=4 / cplxblur=20.0 / qblur=0.5 / ip_ratio=1.40 / pb_ratio=1.30 / aq=1:0.70
Language                         : English
Default                          : Yes
Forced                           : No

Audio #1
ID                               : 2
Format                           :
Format/Info                      : Digital Theater Systems
Codec ID                         : A_DTS
Duration                         : 1h 40mn
Bit rate mode                    : Constant
Bit rate                         : 1 510 Kbps
Channel(s)                       : 6 channels
Channel positions                : Front: L C R, Side: L R, LFE
Sampling rate                    : 48.0 KHz
Bit depth                        : 24 bits
Compression mode                 : Lossy
Stream size                      : 1.06 GiB (24%)
Title                            : 5.1 @ 1536 kbps
Language                         : English
Default                          : Yes
Forced                           : No

Audio #2
ID                               : 3
Format                           : Vorbis
Format settings, Floor           : 1
Codec ID                         : A_VORBIS
Duration                         : 1h 40mn
Bit rate mode                    : Variable
Bit rate                         : 80.0 Kbps
Channel(s)                       : 2 channels
Sampling rate                    : 48.0 KHz
Compression mode                 : Lossy
Stream size                      : 57.6 MiB (1%)
Title                            : OGG 2.0 @ 80 kbps - Commentary with Werner Herzog, producer Henry Kaiser, and cinematographer Peter Zeitlinger
Writing library                  : libVorbis 1.0 (UTC 2002-07-17)
Language                         : English
Default                          : No
Forced                           : No
Writing application              : Made with BeSweet v1.5b31
Encoded_Application/Url          : http://DSPguru.doom9.org

Text #1
ID                               : 4
Format                           : UTF-8
Codec ID                         : S_TEXT/UTF8
Codec ID/Info                    : UTF-8 Plain Text
Language                         : Ukrainian
Default                          : Yes
Forced                           : No

Text #2
ID                               : 5
Format                           : ASS
Codec ID                         : S_TEXT/ASS
Codec ID/Info                    : Advanced Sub Station Alpha
Compression mode                 : Lossless
Language                         : English
Default                          : No
Forced                           : No
Тривалість: 01:40:44
Якість: 720p (DON)
Відео:
кодек:
розмір кадру: 1280x720
бітрейт: 4636 кб/с

Аудіо # 1:
мова: анґлійська
переклад: ориґінал
кодек: 5.1
бітрейт: 1536 кб/с

Аудіо # 2:
мова: анґлійська (коментарі режисера Вернера Герцоґа)
кодек: OGG 2.0
бітрейт: 80 кб/с

Субтитри # 1:
мова: українська
тип: програмні (м’які)
формат: *.srt
джерело субтитрів: DVD

Субтитри # 2:
мова: анґлійська
тип: програмні (м’які)
формат: *.ass

Скріншоти:




Джерело:

Особиста оцінка: не дивився


 Трекер:    Зареєстрований   

Завантажити / скачати фільм українською



відео для новачків



 Зареєстрований:   2012-01-08 19:34
 Розмір:   4.37 GB 
 Оцінка фільму:   8.3/10 (Голосів: 16)
   
praysu 
Забанено
Забанено


З нами з: 22.05.08
Востаннє: 13.11.13
Повідомлень: 119

2012-01-08 22:14  
Цікавий фільм
pah 
Новенький


З нами з: 09.11.12
Востаннє: 08.07.17
Повідомлень: 11

2016-08-06 00:24  
Роздайте, будь ласка, друзі
lpershyi 
Попереджень: 2
Попереджень: 2 


З нами з: 04.01.11
Востаннє: 03.08.17
Повідомлень: 2743

2016-08-06 01:36  
Віктор написано:
анґлійська
Це якою мовою?
Ваш часовий пояс: GMT + 2 Години

Нова тема   Відповісти