Андерсен Г.Х. Гидке каченя. Щаслива родина. Соловей (2006) [FLAC]

Нові коментарі

Нова тема   Відповісти
Автор Повідомлення
ssTAss 
Модератор музики


З нами з: 05.07.08
Востаннє: 20.08.17
Повідомлень: 11794

2012-01-05 00:46  
Андерсен Г.Х. Гидке каченя. Щаслива родина. Соловей (2006) [FLAC]

Андерсен Г.Х. Гидке каченя. Щаслива родина. Соловей (2006) [FLAC]


Мова: українська
Опис:
Казки Ганса Християна Андерсена знають всі з дитинства. Майже всі читали їх, слухали в різних викладах, бачили мультфільми за їх мотивами. Знайомі з маленькою відважною дівчинкою Гердою, яка не злякалася Снігової королеви, і ніжною Елізою, яка сколола всі пальці кропивою, поки шила чарівні сорочки для братів-лебедів. В казках тільки цієї людини із поліна можуть розквітнути троянди. А речі в нього розмовляють вночі і розповідають свої незвичайні історії: любові, розчарувань, сподівань…
Про найсерйозніші речі Великий Казкар умів розповідати простою і ясною мовою. Уява в нього була зовсім дитяча, тому його описи такі легкі та доступні. Все чого від торкається, оживає перед очима. Картини Андерсена такі чарівні, що часто викликають враження незвичайних чарівних сновидінь. Не тільки оточуючі його предмети, наприклад, квіти, трава, а навіть стихії природи, відчуття та поняття приймають живі образи, перетворюються на людей. Вони заворожують, вони зачаровують, вони розважають дітей та дорослих, вони – це казки великого данського чарівника Ганса Хрістіана Андерсена.
Три казочки великого казкаря у виконанні чудових львівських акторів пропонує послухати Студія “НагОлос”.

Озвучено: Студія "НагОлос". Переклад Оксани Іваненко, читають Ольга Гапа та Наталя Лісова
Кодек звуку: FLAC
Бітрейт: 473 кбіт/с
Тривалість: 01:19:35
log

Exact Audio Copy V0.99 prebeta 5 from 4. May 2009

Звіт EAC про видобування, котре виконане 4. січня 2012, 0:48

Г.Х. Андерсен - Казочка біля ліжечка

Дисковод: SlimtypeDVD A DS8A1H Adapter: 0 ID: 0

Режим читання : Точний
Використати точний потік : Так
Вимкнути аудіо кеш : Так
Застосувати мітки C2 : Ні

Корекція зміщення при читанні : 594
Екстрачитання областей Lead-in і Lead-out : Ні
Заповнення пропущених семплів тишею : Так
Видалення блоків з тишею на початку і кінці : Ні
При вирахуванні CRC використовувались нульові семпли : Так
Використаний інтерфейс : 'Рідний' Win32-інтерфейс для Win NT/2000

Застосований вихідний формат : Кодер Користувача
Обраний бітрейт : 1024 kBit/s
Якість : Високий
Додати тег ID3 : Так
Компресор командного рядка : C:\Program Files\Exact Audio Copy\Flac\flac.exe
Додаткові параметри командного рядка : -8 -V -T "ARTIST=%a" -T "TITLE=%t" -T "ALBUM=%g" -T "DATE=%y" -T "TRACKNUMBER=%n" -T "GENRE=%m" -T "COMMENT=EAC FLAC -8" %s

TOC видобутого CD

Трек | Старт | Довжина | Початковий сектор | Кінцевий сектор
------------------------------------------------------------------
1 | 0:00.00 | 33:09.29 | 0 | 149203
2 | 33:09.29 | 12:03.09 | 149204 | 203437
3 | 45:12.38 | 34:22.37 | 203438 | 358124

Статус діапазону і помилки

Обраний діапазон

Ім'я файлу C:\Temp\Г.Х. Андерсен.wav

Піковий рівень 87.1 %
Якість діапазону 100.0 %
CRC тесту 1E97309E
CRC копії 1E97309E
Копіювання... OK

Помилки не траплялися

Кінець звіту
tau
Андерсен Г.Х. Гидке каченя. Щаслива родина. Соловей (2006) [FLAC]
Джерело: власний диск
Особиста оцінка: 10 - без сумнівів рекомендую всім


Золотий реліз (завантажене не впливає на рейтинг)
 Трекер:    Зареєстрований   

Завантажити / скачати аудіокнигу українською



відео для новачків



 Зареєстрований:   2012-01-05 00:46
 Розмір:   270 MB 
 Оцінка аудіокниги:   8.3/10 (Голосів: 16)
   
ssTAss 
Модератор музики


З нами з: 05.07.08
Востаннє: 20.08.17
Повідомлень: 11794

2012-01-06 03:05  
cizarion'е, може варто б було якийсь метал дати, нє? не так багато луслес дисків в "аудіокнигах"
як кажете?

cizarion 
Оцифрування книг Гуртом
Оцифрування книг Гуртом


З нами з: 01.01.10
Востаннє: 23.07.17
Повідомлень: 2036

2012-01-06 12:46  
ssTAss, для вас все, що завгодноHappy
а чим ріпали?

ssTAss 
Модератор музики


З нами з: 05.07.08
Востаннє: 20.08.17
Повідомлень: 11794

2012-01-07 00:05  
cizarion написано:
а чим ріпали?

еаком)
ну, тобто, прогою ЕАС (Exat Audio Copy)
в файлі "log" все написано

Ваш часовий пояс: GMT + 2 Години

Нова тема   Відповісти