Шрек. Квадрологія / Shrek: Ouadrilogy (2001-2004-2007-2010) 1080p Ukr/Eng | Sub Ukr/Eng

Нові коментарі

Нова тема   Відповісти
Автор Повідомлення
ratbol 
Модератор HD


З нами з: 03.02.09
Востаннє: 20.08.17
Повідомлень: 1083

2012-01-03 19:22  
Шрек. Квадрологія / Shrek: Ouadrilogy (2001-2004-2007-2010) 1080p Ukr/Eng | Sub Ukr/Eng



Жанр: анімація, пригодницький, комедія, фентезі
Країна: США


Шрек / Shrek (2001) 1080p 2xUkr/Eng | Sub Ukr/Eng



Жанр: анімація, пригодницький, комедія, фентезі
Країна: США



Кінокомпанія: DreamWorks Animation, DreamWorks SKG, Pacific Data Images (PDI)
Режисер: Ендрю Адамсон, Вікі Дженсон
Актори: Майк Маєрс, Едді Мерфі, Камерон Діаз, Джон Літґов, Вінсан Кассель, Пітер Денніс, Клай Пірс та інші
Рейтинг MPAA: (рекомендований супровід дорослих)

Сюжет:
Жив-був у казковому царстві зелений велетень на ім'я Шрек. Жив він гордою самотою в лісі, на болоті, яке він вважав своїм. Але одного разу злий карлик лорд Фаркуад, володар казкового королівства, безжалісно зігнав всіх казкових мешканців на болото Шрека. І безтурботному життю зеленого троля настав кінець. Але лорд Фаркуад пообіцяв повернути Шреку болото, якщо велетень здобуде йому прекрасну принцесу Фіону, яка мориться у неприступній вежі, яку охороняє вогнедишний дракон...


Тривалість: 01:30:04
Якість: 1080p
Відео:
кодек:
розмір кадру: 1920x1080
бітрейт: 8078 кб/с

Аудіо # 1:
мова: українська
переклад: професійний дубльований | ICTV
кодек: 5.1
бітрейт: 640 кб/с

Аудіо # 2:
мова: українська
переклад: двоголосий закадровий | Новий Канал
кодек: 5.1
бітрейт: 640 кб/с

Аудіо # 3:
мова: англійська
кодек: 5.1
бітрейт: 1536 кб/с

Субтитри:
мова: українська, англійська
тип: програмні (м'які)
формат: *.srt

Оригінальні розділи:
Збережено та підписано

Info
General
Unique ID : 176762414882258277177648819173288960872 (0x84FB33E9CF22D1249BFBDBD56C9DE368)
Complete name : C:\Users\Public\Shrek.2001.1080p.BluRay.2xUkr.Eng.
Format :
Format version : Version 2
File size : 7.10 GiB
Duration : 1h 30mn
Overall bit rate : 11.3 Mbps
Movie name : Shrek (2001)
Encoded date : UTC 2012-01-02 20:01:59
Writing application : mkvmerge v3.2.0 ('Beginnings') built on Feb 12 2010 16:46:17
Writing library : libebml v0.7.9 + libmatroska v0.8.1

Video
ID : 1
Format : AVC
Format/Info : Advanced Video Codec
Format profile : [email protected]
Format settings, CABAC : Yes
Format settings, ReFrames : 4 frames
Codec ID : V_MPEG4/ISO/AVC
Duration : 1h 30mn
Bit rate : 8 500 Kbps
Width : 1 920 pixels
Height : 1 080 pixels
Display aspect ratio : 16:9
Frame rate : 23.976 fps
Color space : YUV
Chroma subsampling : 4:2:0
Bit depth : 8 bits
Scan type : Progressive
Bits/(Pixel*Frame) : 0.171
Stream size : 5.20 GiB (73%)
Writing library : core 114 r1913 5fd3dce
Encoding settings : cabac=1 / ref=4 / deblock=1:-3:-3 / analyse=0x3:0x113 / me=tesa / subme=10 / psy=1 / psy_rd=0.70:0.00 / mixed_ref=1 / me_range=16 / chroma_me=1 / trellis=2 / 8x8dct=1 / cqm=0 / deadzone=21,11 / fast_pskip=0 / chroma_qp_offset=-2 / threads=6 / sliced_threads=0 / nr=0 / decimate=1 / interlaced=0 / constrained_intra=0 / bframes=5 / b_pyramid=2 / b_adapt=2 / b_bias=0 / direct=3 / weightb=1 / open_gop=0 / weightp=2 / keyint=250 / keyint_min=23 / scenecut=40 / intra_refresh=0 / rc_lookahead=60 / rc=2pass / mbtree=0 / bitrate=8500 / ratetol=1.0 / qcomp=0.60 / qpmin=10 / qpmax=51 / qpstep=4 / cplxblur=20.0 / qblur=0.5 / vbv_maxrate=50000 / vbv_bufsize=62500 / nal_hrd=none / ip_ratio=1.40 / pb_ratio=1.30 / aq=1:0.75
Language : English
Default : No
Forced : No

Audio #1
ID : 2
Format : AC-3
Format/Info : Audio Coding 3
Mode extension : CM (complete main)
Codec ID : A_AC3
Duration : 1h 30mn
Bit rate mode : Constant
Bit rate : 640 Kbps
Channel(s) : 6 channels
Channel positions : Front: L C R, Side: L R, LFE
Sampling rate : 48.0 KHz
Bit depth : 16 bits
Compression mode : Lossy
Delay relative to video : 2s 100ms
Stream size : 413 MiB (6%)
Title : 5.1 @ 640 kbps - Дубльований, ICTV
Language : Ukrainian
Default : Yes
Forced : No

Audio #2
ID : 3
Format : AC-3
Format/Info : Audio Coding 3
Mode extension : CM (complete main)
Codec ID : A_AC3
Duration : 1h 30mn
Bit rate mode : Constant
Bit rate : 640 Kbps
Channel(s) : 6 channels
Channel positions : Front: L C R, Side: L R, LFE
Sampling rate : 48.0 KHz
Bit depth : 16 bits
Compression mode : Lossy
Delay relative to video : 2s 100ms
Stream size : 413 MiB (6%)
Title : 5.1 @ 640 kbps - Двоголосий закадровий, Новий Канал
Language : Ukrainian
Default : No
Forced : No

Audio #3
ID : 4
Format :
Format/Info : Digital Theater Systems
Codec ID : A_DTS
Duration : 1h 30mn
Bit rate mode : Constant
Bit rate : 1 510 Kbps
Channel(s) : 6 channels
Channel positions : Front: L C R, Side: L R, LFE
Sampling rate : 48.0 KHz
Bit depth : 24 bits
Compression mode : Lossy
Delay relative to video : 11ms
Stream size : 973 MiB (13%)
Title : 5.1ch 1510 kbps
Language : English
Default : No
Forced : No

Text #1
ID : 5
Format : UTF-8
Codec ID : S_TEXT/UTF8
Codec ID/Info : UTF-8 Plain Text
Title : українські
Language : Ukrainian
Default : No
Forced : No

Text #2
ID : 6
Format : UTF-8
Codec ID : S_TEXT/UTF8
Codec ID/Info : UTF-8 Plain Text
Title : english
Language : English
Default : No
Forced : No

Menu
00:00:00.000 : en:1. Once Upon a Time (Main Title)
00:04:58.798 : en:2. A Flyinf, Talking Donkey
00:11:45.121 : en:3. What Are You Doing In My Swamp?
00:16:00.793 : en:4. Lord Farquaad
00:20:13.379 : en:5. The Kingdom of Duloc
00:26:21.455 : en:6. Ogres Are Like Onions
00:31:42.859 : en:7. The Dragon's Keep
00:35:15.280 : en:8. Rescuing the Princess
00:40:26.007 : en:9. Remove Your Helmet
00:45:03.159 : en:10. Campfire
00:49:18.247 : en:11. Merry Men
00:55:29.701 : en:12. Weedrat Dinner
01:00:56.278 : en:13. You Ate the Princess!
01:05:35.348 : en:14. The Proposal
01:09:16.986 : en:15. Wedding Preparation
01:11:34.707 : en:16. That's What Friends Are For
01:14:53.447 : en:17. The Wedding
01:17:35.818 : en:18. Love's True Form
01:20:55.142 : en:19. I'm a Believer
01:23:04.354 : en:20. End Credits
Скріншоти

Шрек 2 / Shrek 2 (2004) 1080p 2xUkr/Eng | Sub Ukr/Eng



Жанр: анімація, пригодницький, комедія, фентезі
Країна: США



Кінокомпанія: DreamWorks SKG, Pacific Data Images (PDI), DreamWorks Animation
Режисер: Ендрю Адамсон, Келлі Есбері
Актори: Майк Маєрс, Едді Мерфі, Камерон Діаз, Джулі Ендрюс, Антоніо Бандерас, Джон Кліз, Руперт Еверетт та інші
Рейтинг MPAA: (рекомендований супровід дорослих)

Сюжет:
Після медового місяця людожер Шрек та його наречена отримують запрошення від батьків Фіони: короля Гарольда та королеви Ліліан. Однак царські особи просто в шоці, що їх дочка не тільки обрала в чоловіки людожера, але й сама перетворилась на монстра. Та їм на допомогу приходить добра хресна-фея, яка взялася повернути Фіоні людську подобу й причарувати її до принца Красеня, якого їй обрали батьки. Ну а на Шрека натравлюють легендарного вбивцю людожерів і Кота в чоботях...


Тривалість: 01:32:23
Якість: 1080p
Відео:
кодек:
розмір кадру: 1920x1080
бітрейт: 8616 кб/с

Аудіо # 1:
мова: українська
переклад: багатоголосий закадровий | 1+1
кодек: 5.1
бітрейт: 640 кб/с

Аудіо # 2:
мова: українська
переклад: двоголосий закадровий | Новий Канал
кодек: 5.1
бітрейт: 640 кб/с

Аудіо # 3:
мова: англійська
кодек: 5.1
бітрейт: 1536 кб/с

Субтитри:
мова: українська, англійська
тип: програмні (м'які)
формат: *.srt

Оригінальні розділи:
Збережено

Info
General
Unique ID : 212892146718088626941006076736762678612 (0xA0298939310D973EBF26D32DBDF60D54)
Complete name : C:\Users\Public\Shrek.2.2004.1080p.BluRay.2xUkr.Eng.
Format :
Format version : Version 2
File size : 7.61 GiB
Duration : 1h 32mn
Overall bit rate : 11.8 Mbps
Movie name : Shreck 2 (2004)
Encoded date : UTC 2012-01-02 20:10:30
Writing application : mkvmerge v3.2.0 ('Beginnings') built on Feb 12 2010 16:46:17
Writing library : libebml v0.7.9 + libmatroska v0.8.1

Video
ID : 1
Format : AVC
Format/Info : Advanced Video Codec
Format profile : [email protected]
Format settings, CABAC : Yes
Format settings, ReFrames : 4 frames
Codec ID : V_MPEG4/ISO/AVC
Duration : 1h 32mn
Bit rate : 9 000 Kbps
Width : 1 920 pixels
Height : 1 080 pixels
Display aspect ratio : 16:9
Frame rate : 23.976 fps
Color space : YUV
Chroma subsampling : 4:2:0
Bit depth : 8 bits
Scan type : Progressive
Bits/(Pixel*Frame) : 0.181
Stream size : 5.66 GiB (74%)
Writing library : core 114 r1913 5fd3dce
Encoding settings : cabac=1 / ref=4 / deblock=1:-3:-3 / analyse=0x3:0x113 / me=tesa / subme=10 / psy=1 / psy_rd=0.75:0.00 / mixed_ref=1 / me_range=16 / chroma_me=1 / trellis=2 / 8x8dct=1 / cqm=0 / deadzone=21,11 / fast_pskip=0 / chroma_qp_offset=-2 / threads=6 / sliced_threads=0 / nr=0 / decimate=1 / interlaced=0 / constrained_intra=0 / bframes=5 / b_pyramid=2 / b_adapt=2 / b_bias=0 / direct=3 / weightb=1 / open_gop=0 / weightp=2 / keyint=250 / keyint_min=23 / scenecut=40 / intra_refresh=0 / rc_lookahead=60 / rc=2pass / mbtree=0 / bitrate=9000 / ratetol=1.0 / qcomp=0.60 / qpmin=10 / qpmax=51 / qpstep=4 / cplxblur=20.0 / qblur=0.5 / vbv_maxrate=50000 / vbv_bufsize=62500 / nal_hrd=none / ip_ratio=1.40 / pb_ratio=1.30 / aq=1:0.70
Language : English
Default : No
Forced : No

Audio #1
ID : 2
Format : AC-3
Format/Info : Audio Coding 3
Mode extension : CM (complete main)
Codec ID : A_AC3
Duration : 1h 32mn
Bit rate mode : Constant
Bit rate : 640 Kbps
Channel(s) : 6 channels
Channel positions : Front: L C R, Side: L R, LFE
Sampling rate : 48.0 KHz
Bit depth : 16 bits
Compression mode : Lossy
Stream size : 423 MiB (5%)
Title : 5.1 @ 640 kbps - Багатоголосий закадровий, 1+1
Language : Ukrainian
Default : Yes
Forced : No

Audio #2
ID : 3
Format : AC-3
Format/Info : Audio Coding 3
Mode extension : CM (complete main)
Codec ID : A_AC3
Duration : 1h 32mn
Bit rate mode : Constant
Bit rate : 640 Kbps
Channel(s) : 6 channels
Channel positions : Front: L C R, Side: L R, LFE
Sampling rate : 48.0 KHz
Bit depth : 16 bits
Compression mode : Lossy
Stream size : 423 MiB (5%)
Title : 5.1 @ 640 kbps - Двоголосий закадровий, Новий Канал
Language : Ukrainian
Default : No
Forced : No

Audio #3
ID : 4
Format :
Format/Info : Digital Theater Systems
Codec ID : A_DTS
Duration : 1h 32mn
Bit rate mode : Constant
Bit rate : 1 510 Kbps
Channel(s) : 6 channels
Channel positions : Front: L C R, Side: L R, LFE
Sampling rate : 48.0 KHz
Bit depth : 24 bits
Compression mode : Lossy
Delay relative to video : 11ms
Stream size : 998 MiB (13%)
Title : 5.1ch 1510 kbps
Language : English
Default : No
Forced : No

Text #1
ID : 5
Format : UTF-8
Codec ID : S_TEXT/UTF8
Codec ID/Info : UTF-8 Plain Text
Title : українські
Language : Ukrainian
Default : No
Forced : No

Text #2
ID : 6
Format : UTF-8
Codec ID : S_TEXT/UTF8
Codec ID/Info : UTF-8 Plain Text
Title : english
Language : English
Default : No
Forced : No

Menu
00:00:00.000 : en:Chapter 1
00:02:32.778 : en:Chapter 2
00:08:41.980 : en:Chapter 3
00:11:09.502 : en:Chapter 4
00:18:54.425 : en:Chapter 5
00:27:13.507 : en:Chapter 6
00:30:23.613 : en:Chapter 7
00:32:38.498 : en:Chapter 8
00:40:46.277 : en:Chapter 9
00:48:07.843 : en:Chapter 10
00:52:30.606 : en:Chapter 11
00:56:22.421 : en:Chapter 12
01:00:45.308 : en:Chapter 13
01:03:37.731 : en:Chapter 14
01:04:58.978 : en:Chapter 15
01:07:23.498 : en:Chapter 16
01:10:50.746 : en:Chapter 17
01:14:20.373 : en:Chapter 18
01:18:42.259 : en:Chapter 19
01:22:09.174 : en:Chapter 20
Скріншоти


Шрек Третій / Shrek the Third (2007) 1080p Ukr/Eng | Sub Ukr/Eng



Жанр: анімація, пригодницький, комедія, фентезі
Країна: США



Кінокомпанія: DreamWorks Animation, Pacific Data Images (PDI)
Режисер: Реман Г'юі, Кріс Міллер
Актори: Майк Маєрс, Едді Мерфі, Камерон Діаз, Антоніо Бандерас, Джулі Ендрюс, Джон Кліз, Руперт Еверетт та інші
Рейтинг MPAA: (рекомендований супровід дорослих)

Сюжет:
Після смерті короля - батька Фіони, хтось повинен зайняти його місце на троні. Шрек - головний претендент на престол, оскільки покійному він доводиться зятем. Однак оргу така перспектива не влаштовує, адже він не хоче жити в палаці й віддавати розпорядження. Йому подобається рідний будиночок на болоті й спокійне життя з коханою дружиною. Єдиний вихід - знайти іншого спадкоємця, і такий є - це принц Артур, племінник короля Гарольда. Залишилося тільки привезти його в палац і вмовити зійти на престол. А поки Шрек із друзями шукає Артура, у Закрайсвітті назріває бунт - Принц Чарівний шляхом заколоту захоплює трон.


Тривалість: 01:32:46
Якість: 1080p
Відео:
кодек:
розмір кадру: 1920x1080
бітрейт: 8300 кб/с

Аудіо # 1:
мова: українська
переклад: професійний дубльований | Blu-ray
кодек: 5.1
бітрейт: 640 кб/с

Аудіо # 2:
мова: англійська
кодек: 5.1
бітрейт: 1536 кб/с

Субтитри:
мова: українська, англійська
тип: програмні (м'які)
формат: *.srt

Оригінальні розділи:
Збережено та підписано

Info
General
Unique ID : 227516599744296702355900584914969357907 (0xAB2A1A6D3BC55DACA49B43272D3EEE53)
Complete name : D:\ 1080p\Shreck.Ouadrilogy.1080p\Shrek.the.Third.2007.1080p.BluRay.Ukr.Eng.
Format :
Format version : Version 2
File size : 6.77 GiB
Duration : 1h 32mn
Overall bit rate : 10.4 Mbps
Movie name : Shrek the Third (2007)
Encoded date : UTC 2012-01-02 20:30:32
Writing application : mkvmerge v3.2.0 ('Beginnings') built on Feb 12 2010 16:46:17
Writing library : libebml v0.7.9 + libmatroska v0.8.1

Video
ID : 1
Format : AVC
Format/Info : Advanced Video Codec
Format profile : [email protected]
Format settings, CABAC : Yes
Format settings, ReFrames : 4 frames
Codec ID : V_MPEG4/ISO/AVC
Duration : 1h 32mn
Bit rate : 8 300 Kbps
Width : 1 920 pixels
Height : 1 080 pixels
Display aspect ratio : 16:9
Frame rate : 23.976 fps
Color space : YUV
Chroma subsampling : 4:2:0
Bit depth : 8 bits
Scan type : Progressive
Bits/(Pixel*Frame) : 0.167
Stream size : 5.24 GiB (77%)
Title : Shrek the Third (2007)
Writing library : core 114 r1913 5fd3dce
Encoding settings : cabac=1 / ref=4 / deblock=1:-3:-3 / analyse=0x3:0x113 / me=tesa / subme=10 / psy=1 / psy_rd=0.75:0.00 / mixed_ref=1 / me_range=16 / chroma_me=1 / trellis=2 / 8x8dct=1 / cqm=0 / deadzone=21,11 / fast_pskip=0 / chroma_qp_offset=-2 / threads=6 / sliced_threads=0 / nr=0 / decimate=1 / interlaced=0 / constrained_intra=0 / bframes=5 / b_pyramid=2 / b_adapt=2 / b_bias=0 / direct=3 / weightb=1 / open_gop=0 / weightp=2 / keyint=250 / keyint_min=23 / scenecut=40 / intra_refresh=0 / rc_lookahead=60 / rc=2pass / mbtree=0 / bitrate=8300 / ratetol=1.0 / qcomp=0.60 / qpmin=10 / qpmax=51 / qpstep=4 / cplxblur=20.0 / qblur=0.5 / vbv_maxrate=50000 / vbv_bufsize=62500 / nal_hrd=none / ip_ratio=1.40 / pb_ratio=1.30 / aq=1:0.75
Language : English
Default : No
Forced : No

Audio #1
ID : 2
Format : AC-3
Format/Info : Audio Coding 3
Mode extension : CM (complete main)
Codec ID : A_AC3
Duration : 1h 32mn
Bit rate mode : Constant
Bit rate : 640 Kbps
Channel(s) : 6 channels
Channel positions : Front: L C R, Side: L R, LFE
Sampling rate : 48.0 KHz
Bit depth : 16 bits
Compression mode : Lossy
Stream size : 425 MiB (6%)
Title : 5.1ch 640 kbps - професійний дубльований, Blu-ray
Language : Ukrainian
Default : Yes
Forced : No

Audio #2
ID : 3
Format :
Format/Info : Digital Theater Systems
Codec ID : A_DTS
Duration : 1h 32mn
Bit rate mode : Constant
Bit rate : 1 510 Kbps
Channel(s) : 6 channels
Channel positions : Front: L C R, Side: L R, LFE
Sampling rate : 48.0 KHz
Bit depth : 24 bits
Compression mode : Lossy
Delay relative to video : 11ms
Stream size : 1 002 MiB (14%)
Title : 5.1ch 1510 kbps
Language : English
Default : No
Forced : No

Text #1
ID : 4
Format : UTF-8
Codec ID : S_TEXT/UTF8
Codec ID/Info : UTF-8 Plain Text
Title : українські
Language : Ukrainian
Default : No
Forced : No

Text #2
ID : 5
Format : UTF-8
Codec ID : S_TEXT/UTF8
Codec ID/Info : UTF-8 Plain Text
Title : english
Language : English
Default : No
Forced : No

Menu
00:00:00.000 : en:1. Dinner Theater
00:03:23.912 : en:2. Far Far Away
00:09:35.033 : en:3. The King Croaks
00:13:51.372 : en:4. Fairy Tale Villains Unite
00:17:31.342 : en:5. Shrek's Nightmare
00:25:15.889 : en:6. Find Arthur
00:32:16.101 : en:7. The Party's Over
00:38:35.730 : en:8. King Artic
00:41:17.016 : en:9. Mr. Merlin
00:49:15.578 : en:10. Rapunzel's Betrayal
00:51:55.237 : en:11. Magic Trip
00:56:51.158 : en:12. Go Go Away
00:59:24.311 : en:13. Captured
01:03:30.265 : en:14. The Queen Rocks
01:07:08.274 : en:15. Team Awesome
01:10:31.185 : en:16. Royal Showdown
01:19:44.279 : en:17. Happily Ever After, After All
01:22:24.773 : en:18. End Credits
Скріншоти


Шрек Назавжди / Shrek Forever After (2010) 1080p Ukr/Eng | Sub Ukr/Eng



Жанр: анімація, пригодницький, комедія, фентезі
Країна: США



Кінокомпанія: DreamWorks Animation, Pacific Data Images (PDI)
Режисер: Майк Мітчелл
Актори: Майк Маєрс, Едді Мерфі, Камерон Діаз, Антоніо Бандерас, Джулі Ендрюс, Джон Гам, Джон Кліз та інші
Рейтинг MPAA: (рекомендований супровід дорослих)

Сюжет: Втомившись від розміреного, домашнього життя, Шрек укладає угоду з карликом Румпельштільцхеном, щоб знову відчути себе огром. Але в результаті виникла паралельна реальність, в якій Румпельштільцхен став правителем Далекого королівства, на огрів оголошено полювання, а Шрек з Фіоною ніколи не зустрічалися. Шреку доведеться відновити звичний порядок речей.

Тривалість: 01:33:10
Якість: 1080p
Відео:
кодек:
розмір кадру: 1920x1080
бітрейт: 9242 кб/с

Аудіо # 1:
мова: українська
переклад: професійний дубльований | Blu-ray
кодек: 5.1
бітрейт: 640 кб/с

Аудіо # 2:
мова: англійська
кодек: 5.1
бітрейт: 1536 кб/с

Субтитри:
мова: українська, англійська
тип: програмні (м'які)
формат: *.srt

Оригінальні розділи:
Збережено

Info
General
Unique ID : 233402057077580067338885151938778726841 (0xAF9799E06D396894847EF61AB50F81B9)
Complete name : D:\ 1080p\Shreck.Ouadrilogy.1080p\Shrek.Forever.After.2010.1080p.BluRay.Ukr.Eng.
Format :
Format version : Version 2
File size : 7.58 GiB
Duration : 1h 33mn
Overall bit rate : 11.6 Mbps
Movie name : Shrek Forever After (2010)
Encoded date : UTC 2012-01-02 20:38:58
Writing application : mkvmerge v3.2.0 ('Beginnings') built on Feb 12 2010 16:46:17
Writing library : libebml v0.7.9 + libmatroska v0.8.1
Attachment : Yes / Yes / Yes

Video
ID : 1
Format : AVC
Format/Info : Advanced Video Codec
Format profile : [email protected]
Format settings, CABAC : Yes
Format settings, ReFrames : 4 frames
Codec ID : V_MPEG4/ISO/AVC
Duration : 1h 33mn
Bit rate : 9 487 Kbps
Width : 1 920 pixels
Height : 816 pixels
Display aspect ratio : 2.35:1
Frame rate : 23.976 fps
Color space : YUV
Chroma subsampling : 4:2:0
Bit depth : 8 bits
Scan type : Progressive
Bits/(Pixel*Frame) : 0.253
Stream size : 6.03 GiB (80%)
Title : Shrek Forever After (2010)
Writing library : core 107 r1772 c9dad9e
Encoding settings : cabac=1 / ref=5 / deblock=1:-3:-3 / analyse=0x3:0x113 / me=umh / subme=10 / psy=1 / psy_rd=0.95:0.10 / mixed_ref=1 / me_range=64 / chroma_me=1 / trellis=2 / 8x8dct=1 / cqm=0 / deadzone=21,11 / fast_pskip=0 / chroma_qp_offset=-3 / threads=12 / sliced_threads=0 / nr=0 / decimate=1 / interlaced=0 / constrained_intra=0 / bframes=6 / b_pyramid=1 / b_adapt=2 / b_bias=0 / direct=3 / weightb=1 / open_gop=0 / weightp=2 / keyint=250 / keyint_min=23 / scenecut=40 / intra_refresh=0 / rc_lookahead=40 / rc=2pass / mbtree=1 / bitrate=9487 / ratetol=1.0 / qcomp=0.60 / qpmin=10 / qpmax=51 / qpstep=4 / cplxblur=20.0 / qblur=0.5 / ip_ratio=1.40 / aq=1:1.00
Language : English
Default : No
Forced : No

Audio #1
ID : 2
Format : AC-3
Format/Info : Audio Coding 3
Mode extension : CM (complete main)
Codec ID : A_AC3
Duration : 1h 33mn
Bit rate mode : Constant
Bit rate : 640 Kbps
Channel(s) : 6 channels
Channel positions : Front: L C R, Side: L R, LFE
Sampling rate : 48.0 KHz
Bit depth : 16 bits
Compression mode : Lossy
Stream size : 427 MiB (5%)
Title : 5.1ch 640 kbps - професійний дубльованмй, Blu-ray
Language : Ukrainian
Default : Yes
Forced : No

Audio #2
ID : 3
Format :
Format/Info : Digital Theater Systems
Codec ID : A_DTS
Duration : 1h 33mn
Bit rate mode : Constant
Bit rate : 1 510 Kbps
Channel(s) : 6 channels
Channel positions : Front: L C R, Side: L R, LFE
Sampling rate : 48.0 KHz
Bit depth : 24 bits
Compression mode : Lossy
Delay relative to video : 11ms
Stream size : 1 006 MiB (13%)
Title : 5.1ch 1510 kbps
Language : English
Default : No
Forced : No

Text #1
ID : 4
Format : UTF-8
Codec ID : S_TEXT/UTF8
Codec ID/Info : UTF-8 Plain Text
Title : українські
Language : Ukrainian
Default : No
Forced : No

Text #2
ID : 5
Format : UTF-8
Codec ID : S_TEXT/UTF8
Codec ID/Info : UTF-8 Plain Text
Title : english
Language : English
Default : No
Forced : No

Menu
00:00:00.000 : en:Chapter 1
00:04:47.787 : en:Chapter 2
00:08:39.936 : en:Chapter 3
00:14:51.724 : en:Chapter 4
00:19:51.190 : en:Chapter 5
00:24:43.315 : en:Chapter 6
00:33:22.334 : en:Chapter 7
00:41:11.469 : en:Chapter 8
00:44:51.272 : en:Chapter 9
00:48:32.451 : en:Chapter 10
00:51:31.630 : en:Chapter 11
00:53:02.388 : en:Chapter 12
00:58:25.961 : en:Chapter 13
01:03:13.748 : en:Chapter 14
01:05:48.862 : en:Chapter 15
01:12:34.475 : en:Chapter 16
01:20:00.421 : en:Chapter 17
01:23:13.822 : en:Chapter 18
Скріншоти




Джерело:


Бронзовий реліз (на рейтинг впливає 75% завантаженого)
 Трекер:    Зареєстрований   

Завантажити / скачати мультфільм українською



відео для новачків



 Зареєстрований:   2012-01-03 19:22
 Розмір:   29.06 GB 
 Оцінка мультфільму:   9.6/10 (Голосів: 38)
   
kino. 
Модератор відео


З нами з: 27.06.10
Востаннє: 20.08.17
Повідомлень: 2897

2012-01-03 19:32  
я так поняв це також ваша https://toloka.to/t31549
Віктор 
Відео Гуртом - субтитрування
Відео Гуртом - субтитрування


З нами з: 09.01.10
Востаннє: 11.08.17
Повідомлень: 8686

2012-01-03 19:38  
kino. написано:
я так поняв це також ваша

Саме так.

До релізера, Шрек: Колекція виправіть на квадрологію, бо колекція https://toloka.to/t18649 там і короткометражки, і таке інше. В назву допишіть | Sub Ukr/Eng

Piligrime 
Свій


З нами з: 02.03.10
Востаннє: 20.08.17
Повідомлень: 111

2012-01-03 21:13  
Цитата:
зелений велетень , зеленого троля , людоїдське моджо
- визначтесь уже =)
Цитата:
тендітні плечі
Wide grin Wide grin Wide grin
Цитата:
і тоді вони усі четверо: Шрек, Фіона, Ослик та Кіт у чоботах
- Фіона залишилась у замку
Цитата:
доведеться взнати
- дізнатись
Fantasmagor 
Частий відвідувач


З нами з: 14.06.11
Востаннє: 20.08.17
Повідомлень: 30

2014-06-20 20:29  
Щось не так зі звуковою доріжкою у першій частині, дубляж якісний, одразу чути, але настільки гидотно звучить, ніби там бітрейт не 640, а в кращому випадку 64.
Ваш часовий пояс: GMT + 2 Години

Нова тема   Відповісти