Панда Кунг-фу 2 3D / Kung Fu Panda 2 3D (2011) 1080p Ukr/Eng [Half OverUnder]

Нові коментарі

Нова тема   Відповісти
Автор Повідомлення
Бузьок 
програми
програми


З нами з: 18.10.09
Востаннє: 19.08.17
Повідомлень: 1004

2011-12-29 13:57  
Панда Кунг-фу 2 3D / Kung Fu Panda 2 3D (2011) 1080p Ukr/Eng [Half OverUnder]


Жанр: анімаційний, пригодницький, комедія
Країна: США



Кіностудія / кінокомпанія: DreamWorks Animation
Режисер: Дженніфер Йу
Актори: Джек Блeк, Дастiн Гоффман, Анджеліна Джолі, Ґaрі Олдман, Джекі Чан, Сет Роґен, Люсі Ліу, Девід Крос, Джеймс Хонґ, Мішель Йєо, Денні МакБрайд, Денніс Гайсберт, Жан-Клод Ван Дамм, Віктор Ґарбер

Сюжет:
Продовження успішного мультфільму студії DreamWorks про вайлуватого героя кунг-фу: після перемоги над Тай-Лунем По живе в реальному втіленні своєї мрії - в нефритовому палаці разом з героями кунг-фу, періодично побиваючи різних лиходіїв. Але на кордонах Китаю з'являється грізна сила, яка здатна знищити саме кунг-фу - тому герою разом з Шаленою п'ятіркою доводиться вирушити в подорож, аби знайти цю силу і спробувати її зупинити.


Тривалість: 01:30:21
Якість:
Відео:
кодек:
розмір кадру: 1920x1080
бітрейт: 7656 кб/с
формат 3D: вертикальна анаморфна стереопара

Аудіо # 1:
мова: українська
переклад: професійний дубльований
кодек: 5.1
бітрейт: 640 кб/с

Аудіо # 2:
мова: англійська
переклад: оригінал
кодек: 5.1
бітрейт: 640 кб/с

Джерело озвучення:
Info
General
Unique ID : 217635180481934181563527614829495358451 (0xA3BB02D7BA070C909C4AAD60305893F3)
Complete name : D:\Films\Kung Fu Panda 2 3D (2011) 1080p [Ukr,Eng].
Format :
Format version : Version 2
File size : 5.76 GiB
Duration : 1h 30mn
Overall bit rate : 9 130 Kbps
Encoded date : UTC 2011-12-29 12:50:22
Writing application : mkvmerge v5.2.0 ('I can't explain') built on Dec 18 2011 18:12:03
Writing library : libebml v1.2.3 + libmatroska v1.3.0

Video
ID : 1
Format : AVC
Format/Info : Advanced Video Codec
Format profile : [email protected]
Format settings, CABAC : Yes
Format settings, ReFrames : 4 frames
Codec ID : V_MPEG4/ISO/AVC
Duration : 1h 30mn
Bit rate : 7 668 Kbps
Width : 1 920 pixels
Height : 1 080 pixels
Display aspect ratio : 16:9
Frame rate : 23.976 fps
Color space : YUV
Chroma subsampling : 4:2:0
Bit depth : 8 bits
Scan type : Progressive
Bits/(Pixel*Frame) : 0.154
Stream size : 4.84 GiB (84%)
Writing library : core 113 r1884 7313bb5
Encoding settings : cabac=1 / ref=4 / deblock=1:-3:-3 / analyse=0x3:0x113 / me=umh / subme=9 / psy=1 / psy_rd=1.00:0.15 / mixed_ref=1 / me_range=16 / chroma_me=1 / trellis=2 / 8x8dct=1 / cqm=0 / deadzone=21,11 / fast_pskip=1 / chroma_qp_offset=-3 / threads=3 / sliced_threads=0 / nr=0 / decimate=1 / interlaced=0 / constrained_intra=0 / bframes=6 / b_pyramid=2 / b_adapt=2 / b_bias=0 / direct=3 / weightb=1 / open_gop=0 / weightp=2 / keyint=250 / keyint_min=23 / scenecut=40 / intra_refresh=0 / rc_lookahead=60 / rc=crf / mbtree=1 / crf=17.0 / qcomp=0.70 / qpmin=0 / qpmax=69 / qpstep=4 / ip_ratio=1.40 / aq=1:0.70

Audio #1
ID : 2
Format : AC-3
Format/Info : Audio Coding 3
Mode extension : CM (complete main)
Codec ID : A_AC3
Duration : 1h 30mn
Bit rate mode : Constant
Bit rate : 640 Kbps
Channel(s) : 6 channels
Channel positions : Front: L C R, Side: L R, LFE
Sampling rate : 48.0 KHz
Bit depth : 16 bits
Compression mode : Lossy
Stream size : 414 MiB (7%)
Language : Ukrainian

Audio #2
ID : 3
Format : AC-3
Format/Info : Audio Coding 3
Mode extension : CM (complete main)
Codec ID : A_AC3
Duration : 1h 30mn
Bit rate mode : Constant
Bit rate : 640 Kbps
Channel(s) : 6 channels
Channel positions : Front: L C R, Side: L R, LFE
Sampling rate : 48.0 KHz
Bit depth : 16 bits
Compression mode : Lossy
Stream size : 414 MiB (7%)
Language : English

Menu
00:00:00.000 : :01
00:03:53.275 : :02
00:10:34.342 : :03
00:16:08.426 : :04
00:21:14.732 : :05
00:29:55.627 : :06
00:36:52.877 : :07
00:41:13.179 : :08
00:49:43.814 : :09
00:54:05.826 : :10
00:58:53.780 : :11
01:05:08.196 : :12
01:11:42.798 : :13
01:15:30.901 : :14
01:21:14.787 : :15
Скріншоти



Відео виконане в форматі 3D! Для перегляду потрібні спеціальні окуляри та стереоплеєр або телевізор з підтримкою технології 3D!

Усі релізи у форматі 3D
Інструкції щодо перегляду відео у форматі 3D


 Трекер:    Зареєстрований   

Завантажити / скачати мультфільм українською



відео для новачків



 Зареєстрований:   2011-12-29 16:10
 Розмір:   5.76 GB 
 Оцінка мультфільму:   10/10 (Голосів: 6)
   
Дмитро митро 
Відео Гуртом - дизайнер
Відео Гуртом - дизайнер


З нами з: 18.02.09
Востаннє: 14.08.17
Повідомлень: 713

2011-12-29 14:07  
Вибач, що не дочекався скріншотів. Анагліфне?
Бузьок 
програми
програми


З нами з: 18.10.09
Востаннє: 19.08.17
Повідомлень: 1004

2011-12-29 15:19  
Дмитро митро стереопара, але за якщо відтворити в Stereoscopic Player або CyberLink PowerDVD то буде анагліфне..
Віктор 
Відео Гуртом - субтитрування
Відео Гуртом - субтитрування


З нами з: 09.01.10
Востаннє: 11.08.17
Повідомлень: 8686

2011-12-29 15:41  
Якщо це анонс то у відповідний розділ.
Дмитро митро 
Відео Гуртом - дизайнер
Відео Гуртом - дизайнер


З нами з: 18.02.09
Востаннє: 14.08.17
Повідомлень: 713

2011-12-29 16:59  
Бузьок написано:
стереопара, але за якщо відтворити в Stereoscopic Player або CyberLink PowerDVD то буде анагліфне..

Дякую, але в мене комп'ютер не тягне суміщення двох картинок, а можливо є якась програма щоб із втратою якості, але із нормальною продуктивністю відтворювався?

Віктор 
Відео Гуртом - субтитрування
Відео Гуртом - субтитрування


З нами з: 09.01.10
Востаннє: 11.08.17
Повідомлень: 8686

2011-12-29 18:58  
Джерело:
Якщо не в проекті ставити непотрібно, якщо ж в проекті, як підписувати наші релізи - https://toloka.to/t3644

Ваш часовий пояс: GMT + 2 Години

Нова тема   Відповісти