Льодовиковий період: Різдво мамонтів / Ice Age: A Mammoth Christmas (2011) AVC 480p 2xUkr,Eng | Sub Ukr,Eng

Нові коментарі

Нова тема   Відповісти
Автор Повідомлення
Sensetivity 
VIP


З нами з: 03.05.11
Востаннє: 03.01.13
Повідомлень: 2002

2011-12-27 10:21  
Льодовиковий період: Різдво мамонтів / Ice Age: A Mammoth Christmas (2011) 2xUkr,Eng | Sub Ukr,Eng


Жанр: анімація, пригодницький, комедія
Країна: США


Режисер: Карен Дішер
Актори: Рей Романо, Джон Легуізамо, Деніс Лірі, Квін Латіфа, Шон Вільям Скотт, Джош Пек

Сюжет:
Коли Сід випадково руйнує різдвяний камінь, Менні говорить йому, що Сід потрапив у чорний список Санти, і що лінивцеві доведеться летіти на північний полюс просити вибачення у Санти. На північному полюсі Сід хотів все зробити як краще, але тільки погіршив ситуацію. Тепер справа за Менні і компанією, тільки вони об'єднавшись збережуть Різдво для всього світу!


Тривалість: 00:25:33
Якість: (DC of [email protected]=17)
Відео:
Енкод: Sensetivity
кодек:
розмір кадру: 848 х 480
бітрейт: 2143 кб/с

Аудіо # 1:
мова: українська
переклад: Дубляж від [ТО "Цікава Ідея"]
кодек: 2.0
бітрейт: 224 кб/с

Аудіо # 2:
мова: українська
переклад: професійний дубльований [DVD]
кодек: 5.1
бітрейт: 384 кб/с

Аудіо # 3:
мова: англійська
переклад: оригінал [BDSource: 5.1 -> 5.1]
кодек: 5.1
бітрейт: 384 кб/с

Субтитри:
мова: українська
тип: програмні (м'які)
формат: *.

Субтитри:
мова: англійська
тип: програмні (м'які)
формат: *.
Скріншоти
МІ

General
Unique ID : 233876748430145967904440155474215422422 (0xAFF305F7A0C67ED0A7E83D06470DC9D6)
Complete name : E:\Фільми\Ice Age - A Mammoth Christmas (2011) 480p [2xUkr,Eng Sub Ukr,Eng].
Format :
Format version : Version 2
File size : 585 MiB
Duration : 25mn 33s
Overall bit rate : 3 198 Kbps
Movie name : Ice Age: A Mammoth Christmas | Льодовиковий період: Різдво мамонтів
Encoded date : UTC 2011-12-27 08:00:03
Writing application : v5.0.1 ('Es ist Sommer') built on Nov 6 2011 16:23:40
Writing library : libebml v1.2.2 + v1.3.0

Video
ID : 1
Format : AVC
Format/Info : Advanced Video Codec
Format profile : [email protected]
Format settings, CABAC : Yes
Format settings, ReFrames : 5 frames
Codec ID : V_MPEG4/ISO/AVC
Duration : 25mn 33s
Bit rate : 2 143 Kbps
Width : 848 pixels
Height : 480 pixels
Display aspect ratio : 16:9
Frame rate : 23.976 fps
Color space : YUV
Chroma subsampling : 4:2:0
Bit depth : 8 bits
Scan type : Progressive
Bits/(Pixel*Frame) : 0.220
Stream size : 392 MiB (67%)
Writing library : core 119 r2106 07efeb4
Encoding settings : cabac=1 / ref=5 / deblock=1:0:0 / analyse=0x3:0x113 / me=umh / subme=9 / psy=1 / psy_rd=1.00:0.00 / mixed_ref=1 / me_range=24 / chroma_me=1 / trellis=2 / 8x8dct=1 / cqm=0 / deadzone=21,11 / fast_pskip=1 / chroma_qp_offset=-2 / threads=6 / sliced_threads=0 / nr=0 / decimate=1 / interlaced=0 / bluray_compat=0 / constrained_intra=0 / bframes=5 / b_pyramid=2 / b_adapt=2 / b_bias=0 / direct=1 / weightb=1 / open_gop=0 / weightp=2 / keyint=240 / keyint_min=24 / scenecut=40 / intra_refresh=0 / rc_lookahead=30 / rc=crf / mbtree=1 / crf=17.0 / qcomp=0.60 / qpmin=0 / qpmax=69 / qpstep=6 / ip_ratio=1.40 / aq=2:1.00

Audio #1
ID : 2
Format : AC-3
Format/Info : Audio Coding 3
Mode extension : CM (complete main)
Codec ID : A_AC3
Duration : 25mn 33s
Bit rate mode : Constant
Bit rate : 224 Kbps
Channel(s) : 2 channels
Channel positions : Front: L R
Sampling rate : 48.0 KHz
Bit depth : 16 bits
Compression mode : Lossy
Stream size : 40.9 MiB (7%)
Title : Дубляж від ТО "Цікава Ідея"
Language : Ukrainian

Audio #2
ID : 3
Format : AC-3
Format/Info : Audio Coding 3
Mode extension : CM (complete main)
Codec ID : A_AC3
Duration : 25mn 33s
Bit rate mode : Constant
Bit rate : 384 Kbps
Channel(s) : 6 channels
Channel positions : Front: L C R, Side: L R, LFE
Sampling rate : 48.0 KHz
Bit depth : 16 bits
Compression mode : Lossy
Stream size : 70.2 MiB (12%)
Title : Професійний Дубльований
Language : Ukrainian

Audio #3
ID : 4
Format : AC-3
Format/Info : Audio Coding 3
Mode extension : CM (complete main)
Codec ID : A_AC3
Duration : 25mn 33s
Bit rate mode : Constant
Bit rate : 384 Kbps
Channel(s) : 6 channels
Channel positions : Front: L C R, Side: L R, LFE
Sampling rate : 48.0 KHz
Bit depth : 16 bits
Compression mode : Lossy
Stream size : 70.2 MiB (12%)
Title : Original
Language : English

Text #1
ID : 5
Format : UTF-8
Codec ID : S_TEXT/UTF8
Codec ID/Info : UTF-8 Plain Text
Language : Ukrainian

Text #2
ID : 6
Format : UTF-8
Codec ID : S_TEXT/UTF8
Codec ID/Info : UTF-8 Plain Text
Language : English
Додаткова інформ.

Джерело:
Особиста оцінка: 0 - не дивився


Бронзовий реліз (на рейтинг впливає 75% завантаженого)
 Трекер:    Зареєстрований   

Завантажити / скачати фільм українською



відео для новачків



 Зареєстрований:   2011-12-27 10:21
 Розмір:   585 MB 
 Оцінка фільму:   9.4/10 (Голосів: 19)
   
MutuLI 
Відео Гуртом - фільмокрай
Відео Гуртом - фільмокрай


З нами з: 08.03.09
Востаннє: 21.01.21
Повідомлень: 2054

2011-12-27 10:52  
2 дубляжі+укр субтитри, жирно, жирно. Дякую! Глянем на свята
maksym1up 
Відео Гуртом - фільмокрай
Відео Гуртом - фільмокрай


З нами з: 01.12.10
Востаннє: 15.05.19
Повідомлень: 249

2011-12-27 14:03  
А що то за дубляж інший???
4erkov 
Відео Гуртом - запис з ТБ
Відео Гуртом - запис з ТБ


З нами з: 09.10.10
Востаннє: 20.01.21
Повідомлень: 1840

2011-12-27 14:26  
maksym1up написано:
А що то за дубляж інший???

https://toloka.to/t31391

urij546724 
Відео Гуртом - фільмокрай
Відео Гуртом - фільмокрай


З нами з: 16.03.10
Востаннє: 21.01.21
Повідомлень: 5765

2011-12-27 16:50  
Sensetivity, вкажи AVC
Sensetivity 
VIP


З нами з: 03.05.11
Востаннє: 03.01.13
Повідомлень: 2002

2011-12-27 17:06  
urij546724 написано:
480p

в 480p АВС не пишеться, бо ніхто в 480р ІксВідом не кодує...

Tarasyk 
Відео Гуртом - фільмокрай
Відео Гуртом - фільмокрай


З нами з: 26.08.09
Востаннє: 11.03.20
Повідомлень: 6805

2011-12-27 17:09  
Sensetivity написано:
в 480p АВС не пишеться, бо ніхто в 480р ІксВідом не кодує...

Наївне твердження. Бачив реліз, де 720р в було закодовано.
Важко AVC дописати? Сам спочатку подумав, що це , поки не глянув на параметри відео.

Sensetivity 
VIP


З нами з: 03.05.11
Востаннє: 03.01.13
Повідомлень: 2002

2011-12-27 17:12  
Tarasyk написано:
Наївне твердження. Бачив реліз, де 720р в було закодовано.

То робили безрукі нуби які нічого нерозуміють у стисканні відео, і уявлення немають про те, як має виглядати ХД відео. Але ок, допишу.

Tarasyk 
Відео Гуртом - фільмокрай
Відео Гуртом - фільмокрай


З нами з: 26.08.09
Востаннє: 11.03.20
Повідомлень: 6805

2011-12-27 17:19  
Sensetivity написано:
То робили безрукі нуби які нічого нерозуміють у стисканні відео, і уявлення немають про те, як має виглядати ХД відео. Але ок, допишу.

Та я ж не заперечую, але сам факт... Happy
Дякую.

А, і в назві теми мови прийнято через слеш вказувати... Rolleyes (1)

hellforces 
VIP


З нами з: 25.06.08
Востаннє: 17.09.20
Повідомлень: 1547

2011-12-27 21:37  
Дякую за мульт
Дубляж від ТО "Цікава Ідея" це взагалі круто, МОЛОДЦІ.

Ваш часовий пояс: GMT + 2 Години

Нова тема   Відповісти