Льодовиковий період: Різдво мамонтів / Ice Age: A Mammoth Christmas (2011) 1080p Ukr/Eng | Sub Eng

Нові коментарі

Нова тема   Відповісти
Автор Повідомлення
Zeus62 
Відео Гуртом - команда HD
Відео Гуртом - команда HD


З нами з: 29.12.08
Востаннє: 15.12.20
Повідомлень: 330

2011-12-25 23:46  
Льодовиковий період: Різдво мамонтів / Ice Age: A Mammoth Christmas (2011) 1080p Ukr/Eng | Sub Eng

Льодовиковий період: Різдво мамонтів / Ice Age: A Mammoth Christmas (2011) 1080p Ukr/Eng | Sub Eng


Жанр: анімація, короткометражні
Країна: США

Режисер: Карен Дішер
Актори: Рей Романо, Джон Легуізамо, Деніс Лірі, Квін Латіфа, Шон Вільям Скотт, Джош Пек

Сюжет:
Коли Сід випадково руйнує різдвяний камінь, Менні говорить йому, що Сід потрапив у чорний список Санти, і що лінивцеві доведеться летіти на північний полюс просити вибачення у Санти. На північному полюсі Сід хотів все зробити як краще, але тільки погіршив ситуацію. Тепер справа за Менні і компанією, тільки вони об'єднавшись збережуть Різдво для всього світу!


Тривалість: 00:25:33
Якість:
Відео:
кодек:
розмір кадру: 1920 х 1080
бітрейт: 12,5 Мб/с

Аудіо # 1:
мова: українська
переклад: професійний дубльований
кодек: 5.1
бітрейт: 384 кб/с

Аудіо # 2:
мова: англійська
переклад: оригінал
кодек: 5.1
бітрейт: 1510 кб/с

Субтитри:
мова: англійська
тип: програмні (м'які)
формат: *.
Info:
Format :
File size : 2.62 GiB
Duration : 25mn 33s
Overall bit rate : 14.7 Mbps
Movie name : Ice Age: A Mammoth Christmas (2011)
Encoded date : UTC 2011-12-25 21:37:22
Writing application : v4.9.1 ('Ich will') зібрано Jul 23 2011 09:44:16
Writing library : libebml v1.2.1 + v1.1.1
Cover : Yes

Video
ID : 1
Format : AVC
Format/Info : Advanced Video Codec
Format profile : [email protected]
Format settings, CABAC : Yes
Format settings, ReFrames : 4 frames
Codec ID : V_MPEG4/ISO/AVC
Duration : 25mn 33s
Bit rate : 12.5 Mbps
Width : 1 920 pixels
Height : 1 080 pixels
Display aspect ratio : 16:9
Frame rate : 23.976 fps
Color space : YUV
Chroma subsampling : 4:2:0
Bit depth : 8 bits
Scan type : Progressive
Bits/(Pixel*Frame) : 0.251
Stream size : 2.23 GiB (85%)
Writing library : core 120 r2120 0c7dab9
Encoding settings : cabac=1 / ref=4 / deblock=1:-1:-1 / analyse=0x3:0x133 / me=tesa / subme=10 / psy=1 / psy_rd=0.70:0.05 / mixed_ref=1 / me_range=32 / chroma_me=1 / trellis=2 / 8x8dct=1 / cqm=0 / deadzone=21,11 / fast_pskip=0 / chroma_qp_offset=-3 / threads=6 / sliced_threads=0 / nr=0 / decimate=1 / interlaced=0 / bluray_compat=0 / constrained_intra=0 / bframes=6 / b_pyramid=2 / b_adapt=2 / b_bias=0 / direct=3 / weightb=1 / open_gop=0 / weightp=2 / keyint=250 / keyint_min=23 / scenecut=40 / intra_refresh=0 / rc_lookahead=80 / rc=crf / mbtree=1 / crf=15.0 / qcomp=0.60 / qpmin=0 / qpmax=69 / qpstep=4 / ip_ratio=1.40 / aq=1:1.10
Language : English

Audio #1
ID : 2
Format : AC-3
Format/Info : Audio Coding 3
Mode extension : CM (complete main)
Codec ID : A_AC3
Duration : 25mn 33s
Bit rate mode : Constant
Bit rate : 384 Kbps
Channel(s) : 6 channels
Channel positions : Front: L C R, Side: L R, LFE
Sampling rate : 48.0 KHz
Bit depth : 16 bits
Compression mode : Lossy
Stream size : 70.2 MiB (3%)
Language : Ukrainian

Audio #2
ID : 3
Format :
Format/Info : Digital Theater Systems
Codec ID : A_DTS
Duration : 25mn 33s
Bit rate mode : Constant
Bit rate : 1 510 Kbps
Channel(s) : 6 channels
Channel positions : Front: L C R, Side: L R, LFE
Sampling rate : 48.0 KHz
Bit depth : 24 bits
Compression mode : Lossy
Stream size : 276 MiB (10%)
Title : Original / 5.1 @ 1509 kbps
Language : English

Text
ID : 4
Format :
Codec ID : S_TEXT/
Codec ID/Info : Advanced Sub Station Alpha
Compression mode : Lossless
Title : SDH
Language : English

Menu
00:00:00.000 : en:00:00:00.000
00:01:10.195 : en:00:01:10.195
00:06:00.026 : en:00:06:00.026
00:06:52.454 : en:00:06:52.454
00:10:55.738 : en:00:10:55.738
00:13:41.946 : en:00:13:41.946
00:17:47.858 : en:00:17:47.858
00:21:25.576 : en:00:21:25.576
Скріншоти:




Джерело:
Подяка Jatx_11 за DVD - доріжку.
Особиста оцінка: 10 - без зайвих вагань рекомендую всім!


 Трекер:    Зареєстрований   

Завантажити / скачати фільм українською



відео для новачків



 Зареєстрований:   2011-12-25 23:46
 Розмір:   2.62 GB 
 Оцінка фільму:   9.4/10 (Голосів: 19)
   
bot 
робот


З нами з: 30.09.07
Востаннє: 26.05.05
Повідомлень: 26937

2011-12-26 00:02  
Тему перенесено з Трейлери до форуму Короткометражні


richman

Vitala9 
VIP


З нами з: 03.01.10
Востаннє: 09.12.20
Повідомлень: 262

2011-12-26 00:51  
ДЯкую! Я хотів викласти бд 1080р але доріжка не співпадала з фільмом. У цьому релізі немає розсинхрону?
Zeus62 
Відео Гуртом - команда HD
Відео Гуртом - команда HD


З нами з: 29.12.08
Востаннє: 15.12.20
Повідомлень: 330

2011-12-26 01:22  
Цитата:
У цьому релізі немає розсинхрону?

Немає

0mage0 
VIP


З нами з: 06.10.15
Востаннє: 20.01.21
Повідомлень: 726

2020-01-06 11:39  
Лінивець і компанія, як завжди, радують. Рекомендую до перегляду Happy
Ваш часовий пояс: GMT + 2 Години

Нова тема   Відповісти