Кун-фу панда. Дилогія / Kung Fu Panda. Dilogy (2008-2011) 720p Ukr/Eng | Sub Ukr/Eng

Нові коментарі

Нова тема   Відповісти
Автор Повідомлення
Anonymous 







2011-12-25 23:17  
Кун-фу панда. Дилогія / Kung Fu Panda. Dilogy (2008-2011) 720p Ukr/Eng | Sub Ukr/Eng


Кун-фу панда. Дилогія / Kung Fu Panda. Dilogy (2008-2011) 720p Ukr/Eng | Sub Ukr/Eng
Кун-фу панда / Kung Fu Panda (2008) 720p Ukr/Eng | Sub Ukr/Eng
Кун-фу панда / Kung Fu Panda (2008) 720p Ukr/Eng | Sub Ukr/Eng

Кун-фу панда. Дилогія / Kung Fu Panda. Dilogy (2008-2011) 720p Ukr/Eng | Sub Ukr/Eng

«Prepare for awesomeness.»


Жанр: анімаційний, пригодницький, комедія
Країна: США



Кіностудія / кінокомпанія: DreamWorks Animation, Pacific Data Images (PDI)
Режисери: Марк Озборн (Mark Osborne), Джон Стівенсон (John Stevenson)
Композитори: Джон Павел (John Powell), Ганс Цімер (Hans Zimmer)
Актори: Джек Блeк (Jack Black), Дастiн Гофмен (Dustin Hoffman), Анджеліна Джолі (Angelina Jolie), Йєн МакШейн (Ian McShane), Джекі Чан (Jackie Chan), Сет Роґен (Seth Rogen), Люсі Ліу (Lucy Liu), Дейвід Крос (David Cross), Рендал Дук Кім (Randall Duk Kim), Джеймс Гонґ (James Hong), Ден Фоґлер (Dan Fogler), Майкл Кларк Дункан (Michael Clarke Duncan) та інші.

Сюжет:
Панда По є найбільш ледачий серед усіх тварин у Долині Світу, але за примхою долі саме він виявляється обранцем Дракона і має стати великим воїном кун-фу, аби перемогти леґендарного бійця-барса, чия поява загрожує смертю усім мешканцям долини.
Номінації та цікаві факти

Оскар, 2009 рік
Номінації (1):
Найкращий анімаційний фільм

Золотий ґлобус, 2009 рік
Номінації (1):
Найкращий анімаційний фільм

Жорж, 2009 рік
Номінації (1):
Найкращий анімаційний фільм

Цікаві факти про фільм


• Імена головних героїв обрані з реальних слів китайської мови. Ши Фу означає «вчитель», Тай Лунь - «великий дракон», Уґвей - «черепаха».
• При втечі Тай Луня з в'язниці в нього запускають 5 стріл, поруч з ним встромляються 4 (5-у він тут же «відсилає» назад), але через кілька секунд поруч з ним встромлені вже 5 стріл.
• У китайській локалізації фільму Майстра Журавля озвучував Джейсі Чан (син Джекі Чана).
• Коли По потрапляє в Нефритовий Зал, він бачить броню Літаючого Воїна-Носорога, що за стилістикою нагадує броню Залізної Людини (ті ж кольори, такий самий отвір у грудях).
• Бюджет - $130,000,000
Info

Код:
General
Unique ID                                : 211036398376309378197850778194721178041 (0x9EC421C41F9C5DD0BCAE3EBCCC3501B9)
Complete name                            : D:\HURTOM\Kung Fu Panda. Dilogy (2008-2011) 720p [Hurtom, HDCLUB]\Kung Fu Panda (2008) [Ukr, Eng] 720p [Hurtom].
Format                                   :
Format version                           : Version 2
File size                                : 4.03 GiB
Duration                                 : 1h 32mn
Overall bit rate                         : 6 265 Kbps
Movie name                               : Kung Fu Panda (2008) [Ukr, Eng] 720p [Hurtom]
Encoded date                             : UTC 2011-12-25 16:54:55
Writing application                      : mkvmerge v5.0.1 ('Es ist Sommer') built on Oct  9 2011 11:55:43
Writing library                          : libebml v1.2.2 + libmatroska v1.3.0

Video
ID                                       : 1
Format                                   : AVC
Format/Info                              : Advanced Video Codec
Format profile                           : [email protected]
Format settings, CABAC                   : Yes
Format settings, ReFrames                : 4 frames
Codec ID                                 : V_MPEG4/ISO/AVC
Duration                                 : 1h 32mn
Bit rate                                 : 4 790 Kbps
Width                                    : 1 280 pixels
Height                                   : 544 pixels
Display aspect ratio                     : 2.35:1
Frame rate                               : 23.976 fps
Color space                              : YUV
Chroma subsampling                       : 4:2:0
Bit depth                                : 8 bits
Scan type                                : Progressive
Bits/(Pixel*Frame)                       : 0.287
Stream size                              : 3.00 GiB (75%)
Title                                    : Kung Fu Panda (2008) [Ukr, Eng] 720p [Hurtom]
Writing library                          : core 66 r1115bm 11863ac
Encoding settings                        : cabac=1 / ref=4 / deblock=1:-3:-3 / analyse=0x3:0x113 / me=umh / subme=9 / psy_rd=0.7:0.7 / mixed_ref=1 / me_range=32 / chroma_me=1 / trellis=1 / 8x8dct=1 / cqm=0 / deadzone=21,11 / chroma_qp_offset=-4 / threads=2 / thread_queue=2 / nr=0 / decimate=1 / mbaff=0 / bframes=3 / b_pyramid=1 / b_adapt=1 / b_bias=0 / direct=1 / wpredb=1 / keyint=250 / keyint_min=25 / scenecut=40(pre) / rc=2pass / bitrate=4790 / ratetol=1.0 / qcomp=0.60 / qpmin=10 / qpmax=51 / qpstep=4 / cplxblur=20.0 / qblur=0.5 / ip_ratio=1.40 / pb_ratio=1.30 / aq=1:1.00:0:10.00
Language                                 : English

Audio #1
ID                                       : 2
Format                                   : AC-3
Format/Info                              : Audio Coding 3
Mode extension                           : CM (complete main)
Codec ID                                 : A_AC3
Duration                                 : 1h 32mn
Bit rate mode                            : Constant
Bit rate                                 : 640 Kbps
Channel(s)                               : 6 channels
Channel positions                        : Front: L C R, Side: L R, LFE
Sampling rate                            : 48.0 KHz
Bit depth                                : 16 bits
Compression mode                         : Lossy
Delay relative to video                  : -125ms
Stream size                              : 422 MiB (10%)
Title                                    : 5.1 @ 640 kbps - професійний дубльований; Ліцензія Blu Ray
Language                                 : Ukrainian

Audio #2
ID                                       : 3
Format                                   : AC-3
Format/Info                              : Audio Coding 3
Mode extension                           : CM (complete main)
Codec ID                                 : A_AC3
Duration                                 : 1h 32mn
Bit rate mode                            : Constant
Bit rate                                 : 640 Kbps
Channel(s)                               : 6 channels
Channel positions                        : Front: L C R, Side: L R, LFE
Sampling rate                            : 48.0 KHz
Bit depth                                : 16 bits
Compression mode                         : Lossy
Delay relative to video                  : -125ms
Stream size                              : 422 MiB (10%)
Title                                    : 5.1 @ 640 kbps
Language                                 : English

Audio #3
ID                                       : 4
Format                                   : AC-3
Format/Info                              : Audio Coding 3
Mode extension                           : CM (complete main)
Codec ID                                 : A_AC3
Duration                                 : 1h 32mn
Bit rate mode                            : Constant
Bit rate                                 : 192 Kbps
Channel(s)                               : 2 channels
Channel positions                        : Front: L R
Sampling rate                            : 48.0 KHz
Bit depth                                : 16 bits
Compression mode                         : Lossy
Delay relative to video                  : -125ms
Stream size                              : 127 MiB (3%)
Title                                    : 2.0 @ 192 kbps - Commentary
Language                                 : English

Text #1
ID                                       : 5
Format                                   : UTF-8
Codec ID                                 : S_TEXT/UTF8
Codec ID/Info                            : UTF-8 Plain Text
Language                                 : Ukrainian

Text #2
ID                                       : 6
Format                                   : ASS
Codec ID                                 : S_TEXT/ASS
Codec ID/Info                            : Advanced Sub Station Alpha
Compression mode                         : Lossless
Language                                 : English

Text #3
ID                                       : 7
Format                                   : ASS
Codec ID                                 : S_TEXT/ASS
Codec ID/Info                            : Advanced Sub Station Alpha
Compression mode                         : Lossless
Title                                    : Commentary
Language                                 : English

Menu
00:00:00.000                             : en:00:00:00.000
00:02:31.401                             : en:00:02:31.401
00:05:17.067                             : en:00:05:17.067
00:07:58.895                             : en:00:07:58.895
00:10:41.933                             : en:00:10:41.933
00:16:39.332                             : en:00:16:39.332
00:19:28.501                             : en:00:19:28.501
00:22:41.652                             : en:00:22:41.652
00:26:19.870                             : en:00:26:19.870
00:31:13.872                             : en:00:31:13.872
00:35:26.124                             : en:00:35:26.124
00:38:35.605                             : en:00:38:35.605
00:42:34.761                             : en:00:42:34.761
00:45:45.910                             : en:00:45:45.910
00:51:29.712                             : en:00:51:29.712
00:56:29.052                             : en:00:56:29.052
00:58:48.358                             : en:00:58:48.358
01:02:06.222                             : en:01:02:06.222
01:06:52.884                             : en:01:06:52.884
01:09:52.939                             : en:01:09:52.939
01:14:05.483                             : en:01:14:05.483
01:20:04.466                             : en:01:20:04.466
01:23:11.987                             : en:01:23:11.987
Усі наявні релізи

Завантажити:
BD Remux 1080p Ukr/Eng | Sub Ukr/Eng (14.07 GB) - професійний дубльований Ліцензія
720p Ukr/Eng | Sub Ukr/Eng (8.43 GB (у складі дилогії) - професійний дубльований Ліцензія Blu Ray
Ukr/Eng | Sub Ukr/Eng (1.45 GB) - професійний дубльований Ліцензія Blu Ray звук перекодовано в менший бітрейт

Режисер дубляжу: Ольга Фокіна
Перекладач і автор синхронного тексту: Олекса Негребецький
Ролі дублювали: Джек Блек/По – Юрій Ребрик, Тато – Микола Луценко, Рендалл Дук Кім/Майстер Уґвей – Василь Мазур, Дастін Гоффман/Майстер Шіфу – Богдан Ступка, Анджеліна Джолі/Тигриця – Катерина Коновалова, Джекі Чан/Мавпа – Андрій Самінін, Дейвід Кросс/Журавель – Володимир Голосняк, Люсі Ліу/Гадюка – Ірина Ткаленко, Сет Роґан/ Богомол – Анатолій Пашнін, Йєн МакШейн/Тайлунь – Михайло Жонін, Дзень - Павло Скороходько, Гол.бандит/Кабан - Петро Сова, Селянин/Алігатор - Роман Чорний, Лисиця/Кролиця - Людмила Барбір, Офіціант/Свин/Брат 2 - Дмитро Сова, Кроличка - Ганна Кузіна, Кроличок - Олексій Малишев, Брат 1/Свин 3 з палацу/Носоріг - Сергій Солопай, Командир - Анатолій Чумаченко; Масовка: Петро Сова, Людмила Барбір, Ганна Кузіна, Сергій Солопай, Дмитро Сова, Роман Чорний.
Тривалість: 01:32:09
Якість: 720p
Відео:
кодек:
розмір кадру: 1280x544
бітрейт: 4790 кб/с
частота кадрів: 23.976 fps

Аудіо # 1 :
мова: українська
переклад: професійний дубльований | Ліцензія Blu-ray
кодек: 5.1
бітрейт: 640 кб/с

Аудіо # 2 :
мова: анґлійська
переклад: ориґінал
кодек: 5.1
бітрейт: 640 кб/с

Аудіо # 3 :
мова: анґлійська (коментарі)
кодек: 2.0
бітрейт: 192 кб/с

Субтитри # 1:
мова: українська
тип: програмні (м'які)
формат: *.srt
джерело: Blu Ray, (обробка antikillW)

Субтитри # 2-3:
мова: анґлійська (до мультфільму і до коментарів)
тип: програмні (м'які)
формат: *.ass

Скріншоти:


Кун-фу панда 2 / Kung Fu Panda 2 (2011) 720p Ukr/Eng | Sub Ukr/Eng
Кун-фу панда 2 / Kung Fu Panda 2 (2011) 720p Ukr/Eng | Sub Ukr/Eng

Кун-фу панда. Дилогія / Kung Fu Panda. Dilogy (2008-2011) 720p Ukr/Eng | Sub Ukr/Eng

«Prepare for the return of awesomeness.»


Жанр: анімаційний, пригодницький, комедія
Країна: США



Кіностудія / кінокомпанія: DreamWorks Animation
Режисер: Дженіфер Йу (Jennifer Yuh)
Композитори: Джон Павел (John Powell), Ганс Цімер (Hans Zimmer)
Актори: Джек Блeк (Jack Black), Дастiн Гоффмен (Dustin Hoffman), Анджеліна Джолі (Angelina Jolie), Ґaрі Олдмен (Gary Oldman), Джекі Чан (Jackie Chan), Сет Роґен (Seth Rogen), Люсі Ліу (Lucy Liu), Дейвід Крос (David Cross), Джеймс Гонґ (James Hong), Мішель Йєо (Michelle Yeoh), Дені МакБрайд (Danny McBride), Деніс Гайсберт (Dennis Haysbert), Жан-Клод Ван Дам (Jean-Claude Van Damme), Віктор Ґарбер (Victor Garber) та інші.

Сюжет:
Продовження успішного мультфільму студії DreamWorks про вайлуватого героя кун-фу: після перемоги над Тай-Лунем По живе в реальному втіленні своєї мрії - в нефритовому палаці разом з героями кун-фу, періодично побиваючи різних лиходіїв. Але на кордонах Китаю з'являється грізна сила, яка здатна знищити саме кун-фу - тому герою разом з Шаленою п'ятіркою доводиться вирушити в подорож, аби знайти цю силу і спробувати її зупинити.
Чи знаєте ви, що

• Робоча назва картини - «Kung Fu Panda II: The Kaboom of Doom».
• Бюджет - $130,000,000
Info

Код:
General
Unique ID                                : 249461650814150236778275178904734899390 (0xBBAC90FADDEA49AFB86FA363F9CF9CBE)
Complete name                            : D:\HURTOM\Kung Fu Panda. Dilogy (2008-2011) 720p [Hurtom, HDCLUB]\Kung Fu Panda 2 (2011) [Ukr, Eng] 720p [Hurtom].
Format                                   :
Format version                           : Version 2
File size                                : 4.40 GiB
Duration                                 : 1h 30mn
Overall bit rate                         : 6 965 Kbps
Movie name                               : Panda Kung-Fu 2 (2011) [Ukr, Eng] 720p [Hurtom]
Encoded date                             : UTC 2011-12-25 10:39:35
Writing application                      : mkvmerge v5.0.1 ('Es ist Sommer') built on Oct  9 2011 11:55:43
Writing library                          : libebml v1.2.2 + libmatroska v1.3.0

Video
ID                                       : 1
Format                                   : AVC
Format/Info                              : Advanced Video Codec
Format profile                           : [email protected]
Format settings, CABAC                   : Yes
Format settings, ReFrames                : 9 frames
Codec ID                                 : V_MPEG4/ISO/AVC
Duration                                 : 1h 30mn
Bit rate                                 : 5 354 Kbps
Width                                    : 1 280 pixels
Height                                   : 544 pixels
Display aspect ratio                     : 2.35:1
Frame rate                               : 23.976 fps
Color space                              : YUV
Chroma subsampling                       : 4:2:0
Bit depth                                : 8 bits
Scan type                                : Progressive
Bits/(Pixel*Frame)                       : 0.321
Stream size                              : 3.38 GiB (77%)
Title                                    : Panda Kung-Fu 2 (2011) [Ukr, Eng] 720p [Hurtom]
Writing library                          : core 119 r2106 07efeb4
Encoding settings                        : cabac=1 / ref=9 / deblock=1:-3:-3 / analyse=0x3:0x113 / me=tesa / subme=11 / psy=1 / psy_rd=0.80:0.00 / mixed_ref=1 / me_range=16 / chroma_me=1 / trellis=2 / 8x8dct=1 / cqm=0 / deadzone=21,11 / fast_pskip=0 / chroma_qp_offset=-2 / threads=12 / sliced_threads=0 / nr=0 / decimate=0 / interlaced=0 / bluray_compat=0 / constrained_intra=0 / bframes=6 / b_pyramid=2 / b_adapt=2 / b_bias=0 / direct=3 / weightb=1 / open_gop=0 / weightp=2 / keyint=250 / keyint_min=23 / scenecut=40 / intra_refresh=0 / rc=crf / mbtree=0 / crf=15.0 / qcomp=0.60 / qpmin=0 / qpmax=69 / qpstep=4 / ip_ratio=1.40 / pb_ratio=1.30 / aq=1:1.00
Language                                 : English
Matrix coefficients                      : BT.709-5, BT.1361, IEC 61966-2-4 709, SMPTE RP177

Audio #1
ID                                       : 2
Format                                   : AC-3
Format/Info                              : Audio Coding 3
Mode extension                           : CM (complete main)
Codec ID                                 : A_AC3
Duration                                 : 1h 30mn
Bit rate mode                            : Constant
Bit rate                                 : 640 Kbps
Channel(s)                               : 6 channels
Channel positions                        : Front: L C R, Side: L R, LFE
Sampling rate                            : 48.0 KHz
Bit depth                                : 16 bits
Compression mode                         : Lossy
Stream size                              : 414 MiB (9%)
Title                                    : 5.1 @ 640 kbps - професійний дубльований; Ліцензія Blu Ray
Language                                 : Ukrainian

Audio #2
ID                                       : 3
Format                                   : AC-3
Format/Info                              : Audio Coding 3
Mode extension                           : CM (complete main)
Codec ID                                 : A_AC3
Duration                                 : 1h 30mn
Bit rate mode                            : Constant
Bit rate                                 : 640 Kbps
Channel(s)                               : 6 channels
Channel positions                        : Front: L C R, Side: L R, LFE
Sampling rate                            : 48.0 KHz
Bit depth                                : 16 bits
Compression mode                         : Lossy
Stream size                              : 414 MiB (9%)
Title                                    : 5.1 @ 640 kbps
Language                                 : English

Audio #3
ID                                       : 4
Format                                   : AC-3
Format/Info                              : Audio Coding 3
Mode extension                           : CM (complete main)
Codec ID                                 : A_AC3
Duration                                 : 1h 30mn
Bit rate mode                            : Constant
Bit rate                                 : 192 Kbps
Channel(s)                               : 2 channels
Channel positions                        : Front: L R
Sampling rate                            : 48.0 KHz
Bit depth                                : 16 bits
Compression mode                         : Lossy
Stream size                              : 124 MiB (3%)
Title                                    : 2.0 @ 192 kbps - Commentary
Language                                 : English

Text #1
ID                                       : 5
Format                                   : UTF-8
Codec ID                                 : S_TEXT/UTF8
Codec ID/Info                            : UTF-8 Plain Text
Title                                    : Повні до мультфільму
Language                                 : Ukrainian

Text #2
ID                                       : 6
Format                                   : UTF-8
Codec ID                                 : S_TEXT/UTF8
Codec ID/Info                            : UTF-8 Plain Text
Language                                 : English

Text #3
ID                                       : 7
Format                                   : UTF-8
Codec ID                                 : S_TEXT/UTF8
Codec ID/Info                            : UTF-8 Plain Text
Title                                    : Commentary
Language                                 : English

Menu
00:00:00.000                             : en:Chapter 1
00:03:54.276                             : en:Chapter 2
00:10:35.343                             : en:Chapter 3
00:16:09.385                             : en:Chapter 4
00:21:15.774                             : en:Chapter 5
00:29:56.628                             : en:Chapter 6
00:36:53.878                             : en:Chapter 7
00:41:14.180                             : en:Chapter 8
00:49:44.815                             : en:Chapter 9
00:54:06.827                             : en:Chapter 10
00:58:54.781                             : en:Chapter 11
01:05:09.239                             : en:Chapter 12
01:11:43.799                             : en:Chapter 13
01:15:31.902                             : en:Chapter 14
01:21:15.871                             : en:Chapter 15
Всі наявні релізи

Завантажити:
1080p Ukr/Eng | Sub Ukr/Eng (6.73 GB) - професійний дубльований Postmodern Ліцензія Blu Ray
720p Ukr/Eng | Sub Ukr/Eng (8.43 GB (у складі дилогії) - професійний дубльований Postmodern Ліцензія Blu Ray
Ukr/Eng | Sub Ukr/Eng (1.45 GB) - професійний дубльований Postmodern Ліцензія Blu Ray звук перекодовано в менший бітрейт

Фільм надано компанією Paramount Pictures, дубльовано на замовлення компанії B&H Film Distribution студією Postmodern
Режисер дубляжу: Ольга Фокіна
Переклад і укладка тексту: Олекса Негребецький
Звукорежисер: Олександр Козярук
Менеджер проекту: Ірина Туловська
Ролі дублювали: Джек Блек/По – Юрій Ребрик, Тато – Микола Луценко, Дастін Гоффман/Майстер Ші Фу – Богдан Ступка, Анджеліна Джолі/Тигриця – Катерина Коновалова, Джекі Чан/Мавпа – Андрій Самінін, Дейвід Кросс/Журавель – Володимир Голосняк, Люсі Ліу/Гадюка – Ірина Ткаленко, Сет Роґан/ Богомол – Анатолій Пашнін, Лорд Шен/Павич - Андрій Твердак, Віщунка/Коза - Лариса Руснак, Вовк-Вожак - Андрій Мостренко, Майстер Бик - Анатолій Барчук, Майстер Крок - Михайло Вовчук, Майстер Носоріг - Микола Боклан та інші.
Тривалість: 01:30:24
Якість: 720p (Ebp)
Відео:
кодек:
розмір кадру: 1280x544
бітрейт: 5341 кб/с
частота кадрів: 23.976 fps

Аудіо # 1 :
мова: українська
переклад: професійний дубльований Postmodern | Ліцензія Blu-ray
кодек: 5.1
бітрейт: 640 кб/с

Аудіо # 2 :
мова: анґлійська
переклад: ориґінал
кодек: 5.1
бітрейт: 640 кб/с

Аудіо # 3 :
мова: анґлійська (коментарі)
кодек: 2.0
бітрейт: 192 кб/с

Субтитри # 1:
мова: українська
тип: програмні (м'які)
формат: *.srt
джерело: Blu Ray

Субтитри # 2-3:
мова: анґлійська (до мультфільму і до коментарів)
тип: програмні (м'які)
формат: *.srt

Скріншоти:


Кун-фу панда. Дилогія / Kung Fu Panda. Dilogy (2008-2011) 720p Ukr/Eng | Sub Ukr/Eng


Джерело:
Особиста оцінка: 10/10


Бронзовий реліз (на рейтинг впливає 75% завантаженого)
 Трекер:    Зареєстрований   

Завантажити / скачати мультфільм українською



відео для новачків



 Зареєстрований:   2011-12-25 23:17
 Розмір:   8.43 GB 
 Оцінка мультфільму:   9.2/10 (Голосів: 51)
   
Anonymous 







2012-02-21 01:47  
Додав більш повну інформацію про дубляж другої частини.
_oles 
Відео Гуртом - фільмокрай
Відео Гуртом - фільмокрай


З нами з: 07.11.08
Востаннє: 26.07.17
Повідомлень: 1398

2013-09-21 22:23  
По Новому сьогодні траслювався з українським відеорядом.
ratbol 
Модератор HD


З нами з: 03.02.09
Востаннє: 20.08.17
Повідомлень: 1083

2013-09-22 10:56  
Це хіба що в сд розділі актуально.
олег06 
Новенький


З нами з: 11.08.13
Востаннє: 27.10.13
Повідомлень: 1

2013-09-24 19:45  
чому я не можу скачати підскажіть будьласочка у мене пише потік і далі не вантажиться підскажіть на перед дякую. Confused
BMK12 
Відео Гуртом - підтримка та поширення
Відео Гуртом - підтримка та поширення


З нами з: 13.04.09
Востаннє: 21.08.17
Повідомлень: 3110

2013-11-14 22:05  
олег06
Уся справа у Вашому рейтингу.

Додано через 1 хвилину 5 секунд:

_oles написано:
По Новому сьогодні траслювався з українським відеорядом.

Цікаво-цікаво. А є десь запис на Толоці?

ValicV 
Свій


З нами з: 19.01.10
Востаннє: 21.08.17
Повідомлень: 87

2014-02-25 23:23  
Проблеми з серією "S01E02 The Princess & The Po" відео перескакує
leroykendall 
Модератор HD


З нами з: 03.01.11
Востаннє: 20.08.17
Повідомлень: 750

2014-03-03 01:18  
ValicV написано:
Проблеми з серією "S01E02 The Princess & The Po" відео перескакує

Здається помилка темою. В цьому релізі немає таких файлів.

Ваш часовий пояс: GMT + 2 Години

Нова тема   Відповісти