Панда Кунг-Фу 2 / Kung Fu Panda 2 (2011) 1080p Ukr/Eng | Sub Ukr/Eng

Нові коментарі

Нова тема   Відповісти
Автор Повідомлення
Anonymous 







2011-12-22 23:05  
Панда Кунг-Фу 2 / Kung Fu Panda 2 (2011) 1080p Ukr/Eng | Sub Ukr/Eng

Інший постер:


Жанр: анімація, екшн, пригодницький
Країна: США



Кіностудія / кінокомпанія: DreamWorks Animation
Режисер: Дженніфер Йюх
Актори: Анджеліна Джолі, Гарі Олдман, Сет Роген, Жан-Клод Ван Дамм, Джек Блек, Джекі Чан, Джастін Хоффман, Девід Крос, Люсі Лью, Мішель Йео
Ролі озвучують: По – Юрій Ребрик. Майстер Шіфу – Богдан Ступка. Тато – Микола Луценко. Тигриця – Катерина Коновалова. Мавпа – Андрій Самінін. Журавель – Володимир Голосняк. Гадюка – Ірина Ткаленко. Богомол – Анатолій Пашнін.

Сюжет 1:
Панда По, найбільший у світі фанат кунг-фу, продовжує свою подорож, як і говорить давнє пророцтво, освоюючи мистецтво кунг-фу.

Сюжет 2:
Загроза нависла над самим мистецтвом кунг-фу – хто ж стане на його захист, як не славетний учень По, який удосконалив ведення бою у стилі панди. Пророцтво героїчного майбутнього буде справджуватись, і гарантує те саме, що і перша частина, але всього набагато більше: більше прийомчиків, більше пельменів, ще більше пузо.


Тривалість: 01:30:24
Якість: 1080p
Відео:
кодек:
розмір кадру: 1920x816
бітрейт: 8500 кб/с

Аудіо 1:
мова: українська
переклад: професійний дубльований
кодек: 5.1
бітрейт: 640 кб/с

Аудіо 2:
мова: англійська
переклад: оригінал
кодек: 5.1
бітрейт: 1510 кб/с

Субтитри 1:
мова: українська
тип: програмні (м'які)
формат: *.srt

Субтитри 2:
мова: англійська
тип: програмні (м'які)
формат: *.srt

Джерело озвучення:
/ Ліцензія

Панда Кунг-Фу 2 / Kung Fu Panda 2 (2011) 1080p Ukr/Eng | Ліцензія 5.7 Gb
Info

Format :
File size : 6.73 GiB
Duration : 1h 33mn
Overall bit rate : 10.3 Mbps
Movie name : Kung Fu Panda 2 (2011) 1080p Ukr/Eng | Sub Ukr/Eng
Encoded date : UTC 2011-12-22 19:45:36
Writing application : mkvmerge v2.4.2 ('Oh My God') built on Jan 18 2009 17:30:28
Writing library : libebml v0.7.7 + libmatroska v0.8.1
Video #1
ID : 1
Format : AVC
Format/Info : Advanced Video Codec
Format profile : [email protected]
Format settings, CABAC : Yes
Format settings, ReFrames : 5 frames
Muxing mode : Container [email protected]
Codec ID : V_MPEG4/ISO/AVC
Duration : 1h 33mn
Bit rate : 7 989 Kbps
Nominal bit rate : 8 500 Kbps
Width : 1 920 pixels
Height : 816 pixels
Display aspect ratio : 2.35:1
Frame rate : 23.976 fps
Resolution : 24 bits
Colorimetry : 4:2:0
Scan type : Progressive
Bits/(Pixel*Frame) : 0.213
Stream size : 5.19 GiB (77%)
Writing library : core 119 r2106 07efeb4
Encoding settings : cabac=1 / ref=5 / deblock=1:-1:-1 / analyse=0x3:0x113 / me=tesa / subme=11 / psy=1 / psy_rd=0.45:0.05 / mixed_ref=1 / me_range=24 / chroma_me=1 / trellis=2 / 8x8dct=1 / cqm=0 / deadzone=21,11 / fast_pskip=1 / chroma_qp_offset=-3 / threads=12 / sliced_threads=0 / nr=0 / decimate=1 / interlaced=0 / bluray_compat=0 / constrained_intra=0 / bframes=6 / b_pyramid=2 / b_adapt=2 / b_bias=0 / direct=3 / weightb=1 / open_gop=0 / weightp=2 / keyint=250 / keyint_min=23 / scenecut=40 / intra_refresh=0 / rc_lookahead=90 / rc=2pass / mbtree=1 / bitrate=8500 / ratetol=1.0 / qcomp=0.60 / qpmin=10 / qpmax=69 / qpstep=4 / cplxblur=20.0 / qblur=0.5 / ip_ratio=1.40 / aq=2:0.90
Language : English
Audio #2
ID : 2
Format : AC-3
Format/Info : Audio Coding 3
Codec ID : A_AC3
Duration : 1h 33mn
Bit rate mode : Constant
Bit rate : 640 Kbps
Channel(s) : 6 channels
Channel positions : Front: L C R, Surround: L R, LFE
Sampling rate : 48.0 KHz
Stream size : 426 MiB (6%)
Title : Український
Language : Ukrainian
Audio #3
ID : 3
Format :
Format/Info : Digital Theater Systems
Codec ID : A_DTS
Duration : 1h 33mn
Bit rate mode : Constant
Bit rate : 1 510 Kbps
Channel(s) : 6 channels
Channel positions : Front: L C R, Surround: L R, LFE
Sampling rate : 48.0 KHz
Resolution : 24 bits
Video delay : 11ms
Stream size : 1 005 MiB (15%)
Title : Англійський
Language : English
Text #4
ID : 4
Format : UTF-8
Codec ID : S_TEXT/UTF8
Codec ID/Info : UTF-8 Plain Text
Language : Ukrainian
Text #5
ID : 5
Format : UTF-8
Codec ID : S_TEXT/UTF8
Codec ID/Info : UTF-8 Plain Text
Language : English
Світлини:


Особиста оцінка: 9/10
Джерело:


 Трекер:    Зареєстрований   

Завантажити / скачати мультфільм українською



відео для новачків



 Зареєстрований:   2011-12-22 23:05
 Розмір:   6.73 GB 
 Оцінка мультфільму:   8.5/10 (Голосів: 66)
   
Інші релізи
NestorPyasetsky 
Новенький


З нами з: 19.09.11
Востаннє: 27.04.12
Повідомлень: 5

2012-01-03 21:01  
Станьте на роздачу будь ласка.
Віктор 
Відео Гуртом - субтитрування
Відео Гуртом - субтитрування


З нами з: 09.01.10
Востаннє: 11.08.17
Повідомлень: 8686

2012-01-03 21:39  
NestorPyasetsky написано:
Станьте на роздачу будь ласка.

Припиняймо флудити, у вас 4 однакові повідомлення, буде 5 такого ж змісту, отримаєте попередження. На роздачі 17 людей.

bot 
робот


З нами з: 30.09.07
Востаннє: 26.05.05
Повідомлень: 17412

2012-09-21 15:21  
Тему перенесено з Мультфільми в HD до форуму Неоформлене відео


urij546724

гобой 
Новенький


З нами з: 08.01.12
Востаннє: 21.08.17
Повідомлень: 24

2012-10-15 18:34  
Станьте хтось на роздачу..Швидкості 0((((
zendelmaul 
Новенький


З нами з: 27.02.15
Востаннє: 07.08.17
Повідомлень: 13

2015-03-09 16:14  
У кого вже скачений цей файл? Станьте на роздачу, 5 днів вже 0%!
Ваш часовий пояс: GMT + 2 Години

Нова тема   Відповісти