Астерікс і вікінги / Asterix et les Vikings (2006) 720p Ukr/Eng | Sub Eng

Нові коментарі

Нова тема   Відповісти
Автор Повідомлення
braveboy 
Відео Гуртом - команда HD
Відео Гуртом - команда HD


З нами з: 15.06.10
Востаннє: 13.08.17
Повідомлень: 949

2011-11-20 09:39  

Астерікс і вікінги / Asterix et les Vikings (2006)
720p Ukr/Eng | Sub Eng




«Тремтіть, вікінги нападають!»

Жанр: анімація, пригодницький, комедія
Країна: Франція



Режисер: Стефан Фельдмарк, Джеспер Мюллер
Актори: Роже Карель, Лоран Дойч, Сара Форест, Жак Франц, П'єр Пальмад, П'єр Чернія, Бернар Алан, Марк Альфос, Жуль Азем, Патрік Борг

Сюжет:
Астерікс і його друг Обелікс вперше у своєму житті повинні зустрітися з вікінгами. Безстрашні воїни з північної країни викрали племінника вождя галлів, юного Задиру. Місія надзвичайно небезпечна, тому що вікінги славляться як відчайдушні і безжальні воїни ...



Тривалість: 01:18:13
Якість: 720p
Відео:
кодек:
розмір кадру: 1280 x 692
бітрейт: 4485 кб/с
frame rate : 24.000 fps

Аудіо # 1:
мова: українська
переклад: багатоголосий закадровий
кодек: 2.0
бітрейт: 192 кб/с

Аудіо # 2:
мова: англійська
переклад: оригінал
кодек: 5.1
бітрейт: 1509 кб/с

Джерело озвучення:


Субтитри:
мова: англійська
тип: програмні (м'які)
формат: *.srt

Подяка за запис звуку xslim за зведення Gelios
720p by braveboy
Info
Video
ID : 1
Format : AVC
Format/Info : Advanced Video Codec
Format profile : [email protected]
Format settings, CABAC : Yes
Format settings, ReFrames : 8 frames
Codec ID : V_MPEG4/ISO/AVC
Duration : 1h 18mn
Bit rate : 4 485 Kbps
Width : 1 280 pixels
Height : 692 pixels
Display aspect ratio : 1.85:1
Frame rate mode : Constant
Frame rate : 24.000 fps
Color space : YUV
Chroma subsampling : 4:2:0
Bit depth : 8 bits
Scan type : Progressive
Bits/(Pixel*Frame) : 0.211
Stream size : 2.38 GiB (71%)
Title : Asterix and the Vikings (2006) 720p by braveboy
Writing library : core 129 r2245 bc13772
Encoding settings : cabac=1 / ref=8 / deblock=1:-3:-3 / analyse=0x3:0x133 / me=umh / subme=10 / psy=1 / psy_rd=0.90:0.00 / mixed_ref=1 / me_range=32 / chroma_me=1 / trellis=2 / 8x8dct=1 / cqm=0 / deadzone=21,11 / fast_pskip=0 / chroma_qp_offset=-2 / threads=6 / lookahead_threads=1 / sliced_threads=0 / nr=0 / decimate=0 / interlaced=0 / bluray_compat=0 / constrained_intra=0 / bframes=6 / b_pyramid=2 / b_adapt=2 / b_bias=0 / direct=1 / weightb=1 / open_gop=0 / weightp=2 / keyint=240 / keyint_min=24 / scenecut=40 / intra_refresh=0 / rc=2pass / mbtree=0 / bitrate=4485 / ratetol=1.0 / qcomp=0.60 / qpmin=10 / qpmax=51 / qpstep=4 / cplxblur=20.0 / qblur=0.5 / ip_ratio=1.40 / pb_ratio=1.30 / aq=1:1.00
Default : Yes
Forced : No

Audio #1
ID : 2
Format : AC-3
Format/Info : Audio Coding 3
Mode extension : CM (complete main)
Format settings, Endianness : Big
Codec ID : A_AC3
Duration : 1h 18mn
Bit rate mode : Constant
Bit rate : 192 Kbps
Channel(s) : 2 channels
Channel positions : Front: L R
Sampling rate : 48.0 KHz
Bit depth : 16 bits
Compression mode : Lossy
Stream size : 107 MiB (3%)
Title : 2.0 @ 192 kbps [NOVY]
Language : Ukrainian
Default : Yes
Forced : No

Audio #2
ID : 3
Format :
Format/Info : Digital Theater Systems
Mode : 16
Format settings, Endianness : Big
Codec ID : A_DTS
Duration : 1h 18mn
Bit rate mode : Constant
Bit rate : 1 509 Kbps
Channel(s) : 6 channels
Channel positions : Front: L C R, Side: L R, LFE
Sampling rate : 48.0 KHz
Bit depth : 24 bits
Compression mode : Lossy
Stream size : 844 MiB (24%)
Title : 5.1 @ 1509 kbps
Language : English
Default : No
Forced : No

Text
ID : 4
Format : UTF-8
Codec ID : S_TEXT/UTF8
Codec ID/Info : UTF-8 Plain Text
Title : Full
Language : English
Default : No
Forced : No
Скріншоти








 Трекер:    Зареєстрований   

Завантажити / скачати мультфільм українською



відео для новачків



 Зареєстрований:   2015-01-13 05:17
 Розмір:   3.38 GB 
 Оцінка мультфільму:   9.8/10 (Голосів: 21)
   
Інші релізи
braveboy 
Відео Гуртом - команда HD
Відео Гуртом - команда HD


З нами з: 15.06.10
Востаннє: 13.08.17
Повідомлень: 949

2015-01-13 05:24  
оновив укр. доріжку
Gelios 
Відео Гуртом - дизайнер
Відео Гуртом - дизайнер


З нами з: 03.09.11
Востаннє: 02.08.17
Повідомлень: 2086

2015-01-13 11:59  
braveboy написано:
оновив укр. доріжку

А хто її записував, зводив?

braveboy 
Відео Гуртом - команда HD
Відео Гуртом - команда HD


З нами з: 15.06.10
Востаннє: 13.08.17
Повідомлень: 949

2015-01-13 18:15  
Gelios написано:
А хто її записував, зводив?

вказав)

Gelios 
Відео Гуртом - дизайнер
Відео Гуртом - дизайнер


З нами з: 03.09.11
Востаннє: 02.08.17
Повідомлень: 2086

2015-01-13 18:56  
braveboy написано:
Подяка за укр. доріжку Gelios

записував xslim, я зводив.

braveboy 
Відео Гуртом - команда HD
Відео Гуртом - команда HD


З нами з: 15.06.10
Востаннє: 13.08.17
Повідомлень: 949

2015-01-13 19:04  
Gelios написано:
записував xslim, я зводив.

додав

BMK12 
Відео Гуртом - підтримка та поширення
Відео Гуртом - підтримка та поширення


З нами з: 13.04.09
Востаннє: 18.08.17
Повідомлень: 3110

2015-05-16 18:04  
Чи можлива колекція усіх мультфільмів про Астерікса та Обелікса в 720/1080?
Ваш часовий пояс: GMT + 2 Години

Нова тема   Відповісти