Планета 51 / Planet 51 (2009) 720p Ukr/Eng | Sub Eng

Нові коментарі

Нова тема   Відповісти
Автор Повідомлення
DiGen 
Модератор HD та координатор Команди HD
Модератор HD та координатор Команди HD


З нами з: 12.11.09
Востаннє: 24.06.13
Повідомлень: 1451

2011-11-14 14:40  
Планета 51 / Planet 51 (2009) 720p Ukr/Eng | Sub Eng




Жанр: анімація, пригодницький, фантастика, комедія, сімейний
Країна: США, Великобританія, Іспанія



Кіностудія / кінокомпанія: Antena 3 Films, Handmade Films Ltd., Ilion Animation
Режисер: Хорхе Бланко, Хав'єр Абард, Маркос Мартінес
Актори: Двейн Джонсон, Шон Вільям Скотт, Джессіка Біл, Джастін Лонг, Гері Олдмен, Джон Кліз

Сюжет:
Історія роповідає про астронавта, який потрапив на населену планету, і жахливо боїться інопланетної навали. Назва мультфільму натякає на секретну американську військову базу на ім'я Area 51, де нібито зберігаються уламки НЛО.



Тривалість: 01:31:01
Якість:
Відео:
кодек: .
розмір кадру: 1280 х 544
бітрейт: 5366 кб/с

Аудіо # 1:
мова: українська
переклад: багатоголосий закадровий
кодек: 5.1
бітрейт: 448 кб/с

Аудіо # 2:
мова: англійська
переклад: оригінал
кодек: 5.1
бітрейт: 640 кб/с

Джерело озвучення:


Субтитри:
мова: англійська
тип: програмні (м'які)
формат: *.srt
Info:

General
Unique ID : 232934422146767376914600009647627881544 (0xAF3D89B1CA109314BD12CD7641B2CC48)
Complete name : ...\Planet 51 (2009) 720p..[UKR AC3_5.1-448,ENG].[HURTOM] by DiGen.
Format :
File size : 4.11 GiB
Duration : 1h 31mn
Overall bit rate : 6 458 Kbps
Encoded date : UTC 2011-11-14 09:24:13
Writing application : mkvmerge v4.5.0 ('Speed of Light') зібрано Feb 6 2011 12:51:39
Writing library : libebml v1.2.0 + libmatroska v1.1.0
Video #1
ID : 1
Format : AVC
Format/Info : Advanced Video Codec
Format profile : [email protected]
Format settings, CABAC : Yes
Format settings, ReFrames : 4 frames
Format settings, GOP : M=1, N=22
Codec ID : V_MPEG4/ISO/AVC
Duration : 1h 31mn
Bit rate : 5 366 Kbps
Width : 1 280 pixels
Height : 544 pixels
Display aspect ratio : 2.35:1
Frame rate : 23.976 fps
Color space : YUV
Chroma subsampling : 4:2:0
Bit depth : 8 bits
Scan type : Progressive
Bits/(Pixel*Frame) : 0.321
Stream size : 3.33 GiB (81%)
Title : Planet 51.(2009).Tr_01.Video.[Hurtom] by DiGen
Writing library : core 85 r1442 781d300
Encoding settings : cabac=1 / ref=5 / deblock=1:0:0 / analyse=0x3:0x113 / me=umh / subme=7 / psy=1 / psy_rd=1.00:0.20 / mixed_ref=1 / me_range=16 / chroma_me=1 / trellis=1 / 8x8dct=1 / cqm=0 / deadzone=21,11 / fast_pskip=1 / chroma_qp_offset=-3 / threads=6 / sliced_threads=0 / nr=0 / decimate=1 / mbaff=0 / constrained_intra=0 / bframes=3 / b_pyramid=1 / b_adapt=1 / b_bias=0 / direct=3 / wpredb=1 / wpredp=2 / keyint=250 / keyint_min=25 / scenecut=40 / intra_refresh=0 / rc_lookahead=40 / rc=2pass / mbtree=1 / bitrate=5366 / ratetol=1.0 / qcomp=0.60 / qpmin=10 / qpmax=51 / qpstep=4 / cplxblur=20.0 / qblur=0.5 / ip_ratio=1.40 / aq=1:1.00
Language : English
Audio #2
ID : 2
Format : AC-3
Format/Info : Audio Coding 3
Mode extension : CM (complete main)
Codec ID : A_AC3
Duration : 1h 31mn
Bit rate mode : Constant
Bit rate : 448 Kbps
Channel(s) : 6 channels
Channel positions : Front: L C R, Side: L R, LFE
Sampling rate : 48.0 KHz
Bit depth : 16 bits
Compression mode : Lossy
Stream size : 292 MiB (7%)
Title : Planet 51.(2009).Tr_02.A-UKR.[5.1-448].[Hurtom-rooster]
Language : Ukrainian
Audio #3
ID : 3
Format : AC-3
Format/Info : Audio Coding 3
Mode extension : CM (complete main)
Codec ID : A_AC3
Duration : 1h 31mn
Bit rate mode : Constant
Bit rate : 640 Kbps
Channel(s) : 6 channels
Channel positions : Front: L C R, Side: L R, LFE
Sampling rate : 48.0 KHz
Bit depth : 16 bits
Compression mode : Lossy
Stream size : 417 MiB (10%)
Title : Planet 51.(2009).Tr_03.A-Eng.[5.1-640].[Hurtom] by DiGen
Language : English
Text #4
ID : 4
Format : UTF-8
Codec ID : S_TEXT/UTF8
Codec ID/Info : UTF-8 Plain Text
Title : Planet 51.(2009).Tr_04.Sub-Eng.srt.[Hurtom] by DiGen
Language : English
Світлини:







Подяки:
rooster за готову Українську доріжку

Тут можна завантажити оригінальну доріжку в ДТС:


Джерело:
Особиста оцінка: 8 - мені сподобалося
Мої наступні релізи:
HD 1080p/720p:

01. Ворог держави/Enemy of the State 720р - буду починати (чекаю доріжку від 1+1)
02. Льодовиковий період 2/Ice Age 2 720p (якщо буде укр. доріжка)
03. Достукатися до небес/Knockin' On Heaven's Door 720p (якщо буде укр. доріжка)
04. Люди в чорному 2/Men in Black 2 720/1080p
05. Форсаж 1, 2, 3/The Fast and the Furious 1, 2, 3 720p - почну завтра/післязавтра
06. Autumn in New York 720р
08. Співучасник / Collateral (2004) - як тільки буде укр. звук
09. Коефіцієнт інтелекту/IQ (1994) - 720p
10. Робокоп 1,2,3 (1987,1990,1993) 720p
11. Смертельні перегони 1,2/Death Race 1,2(2008/2010) 720p
12. Святий/The Saint 1080p - готовий, лише треба звук підігнати та оформити
13. Boondock Saints.1999.BD.Rip.720p - якщо буде укр.доріжка
14. Boondock Saints II.All Saints Day.BD.Rip.720p - якщо буде укр.доріжка
15. Rain.Man.1988.720p
16.
17.
18. Blind Fury (1989) 1080і - готовий, лише треба звук підігнати та оформити
19.
20.
21. Миротворець / The Peacemaker (1997) 720р
22. Flashbacks of a Fool (2008) 720p - готовий, лише треба звук підігнати та оформити
23. Смертельні перегони 2000року (1975) 1080р - готове відео, лише треба саби
24. Bembi (1942) 720р
25. Private Parts (1997)
26. Requiem for a Dream (2000) 720р
27. Shichinin no samura (1954)

:

01. Формула 51/Formula 51
02. Коефіцієнт інтелекту/IQ (1994) - /720p


 Трекер:    Зареєстрований   

Завантажити / скачати мультфільм українською



відео для новачків



 Зареєстрований:   2011-11-14 18:49
 Розмір:   4.11 GB 
 Оцінка мультфільму:   9.8/10 (Голосів: 30)
   
Інші релізи
   Планета 51 / Planet 51 (2009) Ukr/Eng | Sub Eng karvai0  6 / 1   1.69 GB   2015-01-24 19:55 
   Планета 51 / Planet 51 (2009) DVD5 Ukr/Eng | Sub Eng nikoleg  0 / 0   4.14 GB   2011-09-12 18:03 
DiGen 
Модератор HD та координатор Команди HD
Модератор HD та координатор Команди HD


З нами з: 12.11.09
Востаннє: 24.06.13
Повідомлень: 1451

2011-11-14 14:43  
Буде сьогодні/завтра ввечері.
Реліз був готовий раніше.

[Plus] 
Свій


З нами з: 28.09.10
Востаннє: 18.08.17
Повідомлень: 60

2011-11-16 01:03  
Мультик класний. Раджу переглянути всім, хто його не бачив.
Infoserfer 
Свій


З нами з: 31.10.09
Востаннє: 18.08.17
Повідомлень: 76

2015-07-21 18:57  
Мультфільм не сподобався. Усміхнувся лише кілька разів. Загалом - лишень штампи та невдалі пародії.
Додивився до кінця тільки завдяки гарному перекладу. Щоправда, озвучка має недоліки - подекуди слова персонажів заглушаються фоновими звуками, музикою або англійським оригіналом.

Ваш часовий пояс: GMT + 2 Години

Нова тема   Відповісти