Престо / Presto (2008) 720p Eng | Sub Ukr

Нові коментарі

Нова тема   Відповісти
Останній раз роздавалося Форкуш (2020-09-24)
Автор Повідомлення
Hurtomivets' 
Свій


З нами з: 09.01.10
Востаннє: 24.09.20
Повідомлень: 8685

2011-10-05 12:06  
Престо / Presto (2008) 720p Eng | Sub Ukr



Жанр: мультфільм, короткометражка, комедія
Країна: США



Кіностудія / кінокомпанія: Pixar Animation Studios
Режисер: Даґ Світленд (Doug Sweetland)
Композитор: Скот Блаквелл Стеффорд (Scot Blackwell Stafford)
Актор: Даґ Світленд (Doug Sweetland)

Сюжет:
Відомий фокусник Престо ДіДжіотаджіоні (від слова «престиджітація») готується виконати відомий фокус з капелюхом і кроликом. Сам кролик (якого звуть Алек Азам) сидить в пташиній клітці і страждає від голоду. Кролика це дуже гнітить - адже зовсім поруч лежить заповітна морквинка.
Номінації

Оскар, 2009 рік
Номінації (1):
Найкращий короткометражний анімаційний фільм
Info

Код:

General
Unique ID                        : 223753000966968609262387137154742804783 (0xA85542AE383349B18077E27B0EC4E12F)
Complete name                    : D:\HURTOM\Presto (2008) [Eng. Ukr.Sub] 720p [Hurtom].
Format                           :
File size                        : 193 MiB
Duration                         : 5mn 15s
Overall bit rate                 : 5 139 Kbps
Movie name                       : Presto (2008) [Eng. Ukr.Sub] 720p [Hurtom]
Encoded date                     : UTC 2011-10-05 08:44:55
Writing application              : v5.0.0 ('Die Wahre Liebe') built on Sep 25 2011 20:33:49
Writing library                  : libebml v1.2.2 + v1.3.0

Video
ID                               : 1
Format                           : AVC
Format/Info                      : Advanced Video Codec
Format profile                   : [email protected]
Format settings, CABAC           : Yes
Format settings, ReFrames        : 8 frames
Codec ID                         : V_MPEG4/ISO/AVC
Duration                         : 5mn 15s
Bit rate                         : 4 500 Kbps
Width                            : 1 280 pixels
Height                           : 720 pixels
Display aspect ratio             : 16:9
Frame rate                       : 23.976 fps
Color space                      : YUV
Chroma subsampling               : 4:2:0
Bit depth                        : 8 bits
Scan type                        : Progressive
Bits/(Pixel*Frame)               : 0.204
Stream size                      : 165 MiB (86%)
Title                            : Presto (2008) [Eng. Ukr.Sub] 720p [Hurtom]
Writing library                  : core 65 r1024M 2652abe
Encoding settings                : cabac=1 / ref=8 / deblock=1:-3:-3 / analyse=0x3:0x133 / me=umh / subme=9 / psy_rd=0.9:0.0 / mixed_ref=1 / me_range=24 / chroma_me=1 / trellis=0 / 8x8dct=1 / cqm=2 / deadzone=21,11 / chroma_qp_offset=0 / threads=3 / nr=0 / decimate=1 / mbaff=0 / bframes=6 / b_pyramid=1 / b_adapt=2 / b_bias=0 / direct=3 / wpredb=1 / keyint=250 / keyint_min=25 / scenecut=40(pre) / rc=2pass / bitrate=4500 / ratetol=1.0 / qcomp=0.60 / qpmin=9 / qpmax=19 / qpstep=4 / cplxblur=20.0 / qblur=0.5 / ip_ratio=1.40 / pb_ratio=1.30 / aq=1:0.70
Language                         : English

Audio
ID                               : 2
Format                           : AC-3
Format/Info                      : Audio Coding 3
Mode extension                   : CM (complete main)
Codec ID                         : A_AC3
Duration                         : 5mn 15s
Bit rate mode                    : Constant
Bit rate                         : 640 Kbps
Channel(s)                       : 6 channels
Channel positions                : Front: L C R, Side: L R, LFE
Sampling rate                    : 48.0 KHz
Bit depth                        : 16 bits
Compression mode                 : Lossy
Stream size                      : 24.1 MiB (12%)
Title                            : -EX 5.1 640 Kbps
Language                         : English

Text
ID                               : 3
Format                           : UTF-8
Codec ID                         : S_TEXT/UTF8
Codec ID/Info                    : UTF-8 Plain Text
Language                         : Ukrainian
Тривалість: 00:05:15
Якість: 720p (ESiR)
Відео:
кодек:
розмір кадру: 1280x720
бітрейт: 4500 кб/с
частота кадрів: 23.976 fps

Аудіо :
мова: англійська (мови як такої немає, але є вигуки)
переклад: оригінал
кодек: -EX 5.1
бітрейт: 640 кб/с

Субтитри :
мова: українська
тип: програмні (м'які)
формат: *.srt
переклад субтитрів: w2958l

Скріншоти:



Джерело:
Особиста оцінка: 10 - без зайвих вагань рекомендую всім!


 Трекер:    Зареєстрований   

Завантажити / скачати фільм українською



відео для новачків



 Зареєстрований:   2011-10-05 12:06
 Розмір:   193 MB 
 Оцінка фільму:   9.3/10 (Голосів: 12)
   
RosXXX 
Модератор субтитрованого


З нами з: 03.05.10
Востаннє: 20.09.20
Повідомлень: 876

2011-10-05 13:02  
w2958l написано:
мова: англійська (слів немає)

Якщо немає слів, думаю краще написати відсутня.

Hurtomivets' 
Свій


З нами з: 09.01.10
Востаннє: 24.09.20
Повідомлень: 8685

2011-10-05 13:07  
RosXXX написано:
Якщо немає слів, думаю краще написати відсутня.


Мови як такої немає, але є вигуки, до того ж за інформацією imdb Language: English

RosXXX 
Модератор субтитрованого


З нами з: 03.05.10
Востаннє: 20.09.20
Повідомлень: 876

2011-10-05 13:09  
w2958l написано:
за інформацією imdb Language: English

Тоді нехай буде Happy

Vetal-XL 
VIP


З нами з: 31.03.10
Востаннє: 20.09.20
Повідомлень: 848

2012-11-21 02:35  
Така маленька короткометражка, але така позитивна, що залишає гарний настрій на весь день)))
Ваш часовий пояс: GMT + 2 Години

Нова тема   Відповісти