Богдан-Зиновій Хмельницький (2006) Remux 1080i Ukr/Ger

Нові коментарі

Нова тема   Відповісти
Автор Повідомлення
xfsthe 
Оцифрування книг Гуртом
Оцифрування книг Гуртом


З нами з: 13.02.11
Востаннє: 28.05.20
Повідомлень: 275

2011-09-19 11:26  
Богдан-Зиновій Хмельницький (2006) Remux 1080i Ukr/Ger


Жанр: історичний, драма
Країна: Україна



Кіностудія / кінокомпанія: Кіностудія імені Олександра Довженка
Режисер: Микола Мащенко
Актори: Володимир Абазопуло, Сергій Джигурда, Білял Білялов, Віктор Кручина, Микола Боклан, Віталій Розстальний, Лілія Кузнєцова, Анатолій Чумаченько, Ірма Вітовськая, Тарас Денисенко, Михайло Конечний, Остап Ступка

Сюжет:
Художній фільм розповідає про один з найважчих і трагічних моментів визвольної війни українського народу проти панування шляхетської Польщі (1648 - 1657 рр..) - Битві під Збаражем.
На чолі з Богданом Хмельницьким козацьке військо взяло в щільну облогу містечко Збараж. Польська шляхта під проводом лютого ворога України Яреми Вишневецького опинилася в пастці: закінчилися продовольчі запаси, почався голод, хвороби; Ярема посилав десятки гінців до польського короля з благаннями про військову допомогу, але жоден з гінців не зміг прорватися крізь козацьку облогу. Здавалося б, незабаром запорізьке козацтво буде святкувати остаточну перемогу, але сталося непередбачене - зрадою обернувся для Хмельницького союз із Кримським Ханом Ісламом-Гіреєм: посеред запеклого бою орда покинула поле битви ...
Богдан Хмельницький опинився перед важким вибором - здобути дорогою ціною перемогу над Польщею, втопивши Україну в крові, або погодитися на принизливі і вкрай невигідні умови мирної угоди ... Величезні військові втрати, зрада найближчих союзників, особиста сімейна трагедія - лише частина мук, що терзали тоді великого Гетьмана України. Режисер показав, що Богдан Хмельницький - великий полководець і стратег - в той же час був звичайною людиною зі своїми недоліками, слабкостями, страхами і проблемами


Тривалість: 1:57:15
Якість: Remux
Відео:
кодек:
розмір кадру: 1920 х 1080
бітрейт: 13,9 Мб/с

Аудіо # 1:
мова: українська
переклад: оригінал
кодек: 2.0
бітрейт: 448 кб/с

Аудіо # 2:
мова: німецька
переклад: професійний дубльований
кодек: 5.1
бітрейт: 640 кб/с
Info
Код:
Format :
Format version : Version 2
File size : 12.5 GiB
Duration : 1 h 57 min
Overall bit rate mode : Variable
Overall bit rate : 15.3 Mb/s
Encoded date : UTC 2011-09-17 23:01:42
Writing application : v4.3.0 ('Escape from the Island') збірка від Sep 5 2010 10:30:51
Writing library : libebml v1.0.0 + v1.0.0

Video
ID : 1
Format : AVC
Format/Info : Advanced Video Codec
Format profile : [email protected]
Format settings : CABAC / 3 Ref Frames
Format settings, CABAC : Yes
Format settings, ReFrames : 3 frames
Muxing mode : Container [email protected]
Codec ID : V_MPEG4/ISO/AVC
Duration : 1 h 57 min
Bit rate mode : Variable
Bit rate : 13.9 Mb/s
Maximum bit rate : 20.0 Mb/s
Width : 1 920 pixels
Height : 1 080 pixels
Display aspect ratio : 16:9
Frame rate mode : Constant
Frame rate : 25.000 FPS
Standard : PAL
Color space : YUV
Chroma subsampling : 4:2:0
Bit depth : 8 bits
Scan type : Interlaced
Scan type, store method : Separated fields
Scan order : Top Field First
Bits/(Pixel*Frame) : 0.268
Stream size : 11.4 GiB (91%)
Title : Богдан Зиновій Хмельницький (2008)
Language : Ukrainian
Default : Yes
Forced : Yes
Color range : Limited
Color primaries : BT.709
Transfer characteristics : BT.709
Matrix coefficients : BT.709

Audio #1
ID : 2
Format : AC-3
Format/Info : Audio Coding 3
Commercial name : Dolby Digital
Muxing mode : Header stripping
Codec ID : A_AC3
Duration : 1 h 57 min
Bit rate mode : Constant
Bit rate : 448 kb/s
Channel(s) : 2 channels
Channel positions : Front: L R
Sampling rate : 48.0 kHz
Frame rate : 31.250 FPS (1536 SPF)
Bit depth : 16 bits
Compression mode : Lossy
Stream size : 376 MiB (3%)
Title : українська (оригінал) ,2.0
Language : Ukrainian
Service kind : Complete Main
Default : Yes
Forced : Yes

Audio #2
ID : 3
Format : AC-3
Format/Info : Audio Coding 3
Commercial name : Dolby Digital
Muxing mode : Header stripping
Codec ID : A_AC3
Duration : 1 h 57 min
Bit rate mode : Constant
Bit rate : 640 kb/s
Channel(s) : 6 channels
Channel positions : Front: L C R, Side: L R, LFE
Sampling rate : 48.0 kHz
Frame rate : 31.250 FPS (1536 SPF)
Bit depth : 16 bits
Compression mode : Lossy
Stream size : 537 MiB (4%)
Title : німецька (дубляж) , 5.1
Language : German
Service kind : Complete Main
Default : No
Forced : No
Скріншоти:
Джерело:
Особиста оцінка: 10 - без зайвих вагань рекомендую всім!


Золотий реліз (завантажене не впливає на рейтинг)
 Трекер:    Зареєстрований   

Завантажити / скачати фільм українською



відео для новачків



 Зареєстрований:   2011-09-19 11:26
 Розмір:   12.53 GB 
 Оцінка фільму:   9.7/10 (Голосів: 20)
   
Hurtomivets' 
Свій


З нами з: 09.01.10
Востаннє: 26.05.20
Повідомлень: 8721

2011-09-19 12:22  
У ремукса повинен бути такий самий бітрейт відео як і блю рея, тобто 14216 kbps
xfsthe 
Оцифрування книг Гуртом
Оцифрування книг Гуртом


З нами з: 13.02.11
Востаннє: 28.05.20
Повідомлень: 275

2011-09-19 12:31  
w2958l написано:
У ремукса повинен бути такий самий бітрейт відео як і блю рея, тобто 14216 kbps

зараз перевірю точніше, бо оцінював "на око", це точно ремукс

multiAVCHD показав бітрейт відео: 13 312 кб/c

Hentaihunter 
VIP


З нами з: 16.08.08
Востаннє: 28.05.20
Повідомлень: 2532

2011-09-19 15:35  
xfsthe написано:
1080p

Брехня, 1080i.
xfsthe написано:

Аудіо # 2:

мова: німецька

переклад: професійний дубльований

кодек: 5.1

бітрейт: 640 кб/с

У ремуксі має бути оригінальний за якістю звук. У даному випадку - Німецька -HD MA 5.1 1979 кб/с / 16-bit ( Core: 5.1 / 48 kHz / 1509 кб/с / 16-bit / DN -2dB). Отже, це не ремукс. Навіщо взагалі було паскудити звук?
xfsthe написано:

Відео:

кодек:

розмір кадру: 1920 х 1080

бітрейт: 13 312 кб/с


На хайдіклабі - 14216 кб/с.

xfsthe 
Оцифрування книг Гуртом
Оцифрування книг Гуртом


З нами з: 13.02.11
Востаннє: 28.05.20
Повідомлень: 275

2011-09-19 16:12  
Hentaihunter написано:
Брехня, 1080i.

так, дійсно, це - 1080і, недогледів
Hentaihunter написано:
Навіщо взагалі було паскудити звук?

я взагалі спочатку не хотів залишати німецьку доріжку, проте залишив для ознайомлення, звук перекодував оскільки він забагато займає і погіршення якості істотно почутим не буде. Тим паче мало хто буде дивитися німецькою. Українську доріжку я не змінював.
Hentaihunter написано:
На хайдіклабі - 14216 кб/с.

Відео доріжку я не змінював, бітрейт написав за даними програми multiAVCHD.

vash1 
VIP


З нами з: 16.03.16
Востаннє: 25.05.20
Повідомлень: 257

2016-07-02 19:29  
Hentaihunter, ви якийсь злий..
Ідіть і скачайте з hdclub-у. Роздайте на толоці. Поглиньте роздачу xfsthe, як недосконалу. Profit ;]

P.S. Релізеру - респект!

ultramuha 
Частий відвідувач


З нами з: 22.09.13
Востаннє: 18.05.20
Повідомлень: 34

2016-07-05 19:55  
виробництво таких фільмів межує з здійсненням шкідницької діяльності. я б режисера заслав на острів Зміїний у заслання на 20 років.
Ваш часовий пояс: GMT + 2 Години

Нова тема   Відповісти