Gorchitza - It's You (2011) [FLAC] | Electro / House

Нові коментарі

Нова тема   Відповісти
Останній раз роздавалося v.y[fepty (2016-06-26)
Автор Повідомлення
zeron 
Відео Гуртом - підтримка та поширення
Відео Гуртом - підтримка та поширення


З нами з: 07.05.08
Востаннє: 22.08.17
Повідомлень: 83

2011-08-01 16:54  
Gorchitza - It's You (2011) [FLAC] | Electro / House



Стиль: Electro, House
Країна, місто: Україна, Київ
Сайти: Офіційний сайт
Видавець: Союз/Айкон (Росія)
Виконавці:
Alexey Gorchitza (Alexey Laptev) - слова, клавішні, програмування
Allois (Alla Moskovka) - вокал, слова
Malysh (Alexey Eliseyev) - гітара
Kuzya (Oleg Kuzmenko) - ударні
Yarik (Yaroslav Polishyuk) - бас-гітара
Пісні:
    01 - The Learning (3:30)
    02 - Final Cut (3:19)
    03 - Last Time (3:58)
    04 - Look Around (4:04)
    05 - Silence (3:35)
    06 - It`s You (3:53)
    07 - There is Hope (4:55)
    08 - Sorry (5:00)
    09 - Friend (3:31)
    10 - Love Again (3:50)
    11 - If (4:03)
    12 - Twinkle (5:43)
тех. дані кліпів
01: Final Cut
Формат відео: mp4
Відео: h264, 720x576, 5:4, 25fps, 1372kbps
Аудіо: , 48khz, 256kbps, stereo
Info
General
Complete name : I:\Bitt_Upload\Gorchitza-[2011]-It`s You_flac\Extra\01. GORCHITZA -Final Cut.mp4
Format : MPEG-4
Format profile : Base Media / Version 2
Codec ID : mp42
File size : 39.2 MiB
Duration : 3mn 21s
Overall bit rate : 1 632 Kbps
Encoded date : UTC 2011-03-10 21:41:25
Tagged date : UTC 2011-03-10 21:41:31

Video
ID : 1
Format : AVC
Format/Info : Advanced Video Codec
Format profile : [email protected]
Format settings, CABAC : No
Format settings, ReFrames : 2 frames
Codec ID : avc1
Codec ID/Info : Advanced Video Coding
Duration : 3mn 21s
Bit rate mode : Variable
Bit rate : 1 372 Kbps
Width : 720 pixels
Height : 576 pixels
Display aspect ratio : 5:4
Frame rate mode : Constant
Frame rate : 25.000 fps
Standard : PAL
Color space : YUV
Chroma subsampling : 4:2:0
Bit depth : 8 bits
Scan type : Progressive
Bits/(Pixel*Frame) : 0.132
Stream size : 33.0 MiB (84%)
Title : Обработчик видео Apple
Language : English
Encoded date : UTC 2011-03-10 21:41:25
Tagged date : UTC 2011-03-10 21:41:31
Color primaries : BT.601-6 525, BT.1358 525, BT.1700 NTSC, SMPTE 170M
Transfer characteristics : BT.709-5, BT.1361
Matrix coefficients : BT.601-6 525, BT.1358 525, BT.1700 NTSC, SMPTE 170M

Audio
ID : 2
Format :
Format/Info : Advanced Audio Codec
Format version : Version 4
Format profile : LC
Format settings, SBR : No
Codec ID : 40
Duration : 3mn 21s
Bit rate mode : Constant
Bit rate : 256 Kbps
Channel(s) : 2 channels
Channel positions : Front: L R
Sampling rate : 48.0 KHz
Stream size : 6.15 MiB (16%)
Title : Обработчик звука Apple
Language : English
Encoded date : UTC 2011-03-10 21:41:25
Tagged date : UTC 2011-03-10 21:41:31
Скріншоти:


02: Last Time
Формат відео: mp4
Відео: h264, 720x576, 5:4, 25fps, 1199kbps
Аудіо: , 48khz, 256kbps, stereo
Info
General
Complete name : I:\Bitt_Upload\Gorchitza-[2011]-It`s You_flac\Extra\02. GORCHITZA-Last Time.mp4
Format : MPEG-4
Format profile : Base Media / Version 2
Codec ID : mp42
File size : 41.7 MiB
Duration : 4mn 0s
Overall bit rate : 1 459 Kbps
Encoded date : UTC 2011-03-10 20:53:17
Tagged date : UTC 2011-03-10 20:53:34

Video
ID : 1
Format : AVC
Format/Info : Advanced Video Codec
Format profile : [email protected]
Format settings, CABAC : No
Format settings, ReFrames : 2 frames
Codec ID : avc1
Codec ID/Info : Advanced Video Coding
Duration : 4mn 0s
Bit rate mode : Variable
Bit rate : 1 199 Kbps
Width : 720 pixels
Height : 576 pixels
Display aspect ratio : 5:4
Frame rate mode : Constant
Frame rate : 25.000 fps
Standard : PAL
Color space : YUV
Chroma subsampling : 4:2:0
Bit depth : 8 bits
Scan type : Progressive
Bits/(Pixel*Frame) : 0.116
Stream size : 34.3 MiB (82%)
Title : Обработчик видео Apple
Language : English
Encoded date : UTC 2011-03-10 20:53:16
Tagged date : UTC 2011-03-10 20:53:34
Color primaries : BT.601-6 525, BT.1358 525, BT.1700 NTSC, SMPTE 170M
Transfer characteristics : BT.709-5, BT.1361
Matrix coefficients : BT.601-6 525, BT.1358 525, BT.1700 NTSC, SMPTE 170M

Audio
ID : 2
Format :
Format/Info : Advanced Audio Codec
Format version : Version 4
Format profile : LC
Format settings, SBR : No
Codec ID : 40
Duration : 4mn 0s
Bit rate mode : Constant
Bit rate : 256 Kbps
Channel(s) : 2 channels
Channel positions : Front: L R
Sampling rate : 48.0 KHz
Stream size : 7.32 MiB (18%)
Title : Обработчик звука Apple
Language : English
Encoded date : UTC 2011-03-10 20:53:16
Tagged date : UTC 2011-03-10 20:53:34
Скріншоти:


03: Call it a Dream
Формат відео: mp4
Відео: h264, 720x540, 4:3, 25fps, 1675kbps
Аудіо: , 44.1khz, 256kbps, stereo
Info
General
Complete name : I:\Bitt_Upload\Gorchitza-[2011]-It`s You_flac\Extra\03. GORCHITZA - Call It A Dream.mp4
Format : MPEG-4
Format profile : Base Media / Version 2
Codec ID : mp42
File size : 45.9 MiB
Duration : 3mn 19s
Overall bit rate : 1 934 Kbps
Encoded date : UTC 2011-03-10 20:33:59
Tagged date : UTC 2011-03-10 20:34:01

Video
ID : 1
Format : AVC
Format/Info : Advanced Video Codec
Format profile : [email protected]
Format settings, CABAC : No
Format settings, ReFrames : 2 frames
Codec ID : avc1
Codec ID/Info : Advanced Video Coding
Duration : 3mn 19s
Bit rate mode : Variable
Bit rate : 1 675 Kbps
Width : 720 pixels
Height : 540 pixels
Display aspect ratio : 4:3
Frame rate mode : Constant
Frame rate : 25.000 fps
Color space : YUV
Chroma subsampling : 4:2:0
Bit depth : 8 bits
Scan type : Progressive
Bits/(Pixel*Frame) : 0.172
Stream size : 39.7 MiB (87%)
Title : Обработчик видео Apple
Language : English
Encoded date : UTC 2011-03-10 20:33:58
Tagged date : UTC 2011-03-10 20:34:01
Color primaries : BT.601-6 525, BT.1358 525, BT.1700 NTSC, SMPTE 170M
Transfer characteristics : BT.709-5, BT.1361
Matrix coefficients : BT.601-6 525, BT.1358 525, BT.1700 NTSC, SMPTE 170M

Audio
ID : 2
Format :
Format/Info : Advanced Audio Codec
Format version : Version 4
Format profile : LC
Format settings, SBR : No
Codec ID : 40
Duration : 3mn 18s
Bit rate mode : Constant
Bit rate : 256 Kbps
Channel(s) : 2 channels
Channel positions : Front: L R
Sampling rate : 44.1 KHz
Stream size : 6.07 MiB (13%)
Title : Обработчик звука Apple
Language : English
Encoded date : UTC 2011-03-10 20:33:58
Tagged date : UTC 2011-03-10 20:34:01
Скріншоти:


04: One New Message (Apollo 440 rmx)
Формат відео: mp4
Відео: h264, 720x576, 5:4, 25fps, 1002kbps
Аудіо: , 48khz, 256kbps, stereo
Info
General
Complete name : I:\Bitt_Upload\Gorchitza-[2011]-It`s You_flac\Extra\04. GORCHITZA - One New Message [Apollo 440 Remix].mp4
Format : MPEG-4
Format profile : Base Media / Version 2
Codec ID : mp42
File size : 43.9 MiB
Duration : 4mn 51s
Overall bit rate : 1 262 Kbps
Encoded date : UTC 2011-03-10 22:52:27
Tagged date : UTC 2011-03-10 22:52:29

Video
ID : 1
Format : AVC
Format/Info : Advanced Video Codec
Format profile : [email protected]
Format settings, CABAC : No
Format settings, ReFrames : 2 frames
Codec ID : avc1
Codec ID/Info : Advanced Video Coding
Duration : 4mn 51s
Bit rate mode : Variable
Bit rate : 1 002 Kbps
Width : 720 pixels
Height : 576 pixels
Display aspect ratio : 5:4
Frame rate mode : Constant
Frame rate : 25.000 fps
Standard : PAL
Color space : YUV
Chroma subsampling : 4:2:0
Bit depth : 8 bits
Scan type : Progressive
Bits/(Pixel*Frame) : 0.097
Stream size : 34.8 MiB (79%)
Title : Обработчик видео Apple
Language : English
Encoded date : UTC 2011-03-10 22:52:27
Tagged date : UTC 2011-03-10 22:52:29
Color primaries : BT.601-6 525, BT.1358 525, BT.1700 NTSC, SMPTE 170M
Transfer characteristics : BT.709-5, BT.1361
Matrix coefficients : BT.601-6 525, BT.1358 525, BT.1700 NTSC, SMPTE 170M

Audio
ID : 2
Format :
Format/Info : Advanced Audio Codec
Format version : Version 4
Format profile : LC
Format settings, SBR : No
Codec ID : 40
Duration : 4mn 51s
Bit rate mode : Constant
Bit rate : 256 Kbps
Channel(s) : 2 channels
Channel positions : Front: L R
Sampling rate : 48.0 KHz
Stream size : 8.90 MiB (20%)
Title : Обработчик звука Apple
Language : English
Encoded date : UTC 2011-03-10 22:52:27
Tagged date : UTC 2011-03-10 22:52:29
Скріншоти:


Лог EAC:
Exact Audio Copy V0.99 prebeta 5 from 4. May 2009

EAC extraction logfile from 13. July 2011, 16:51

Gorchitza / It`s You

Used drive : HL-DT-STDVDRAM GH22NS40 Adapter: 2 ID: 0

Read mode : Secure
Utilize accurate stream : Yes
Defeat audio cache : Yes
Make use of C2 pointers : No

Read offset correction : 667
Overread into Lead-In and Lead-Out : No
Fill up missing offset samples with silence : Yes
Delete leading and trailing silent blocks : No
Null samples used in CRC calculations : Yes
Used interface : Installed external ASPI interface
Gap handling : Appended to previous track

Used output format : User Defined Encoder
Selected bitrate : 1024 kBit/s
Quality : High
Add ID3 tag : No
Command line compressor : C:\Program Files\Exact Audio Copy\Flac\flac.exe
Additional command line options : -8 -V -T "ARTIST=%a" -T "TITLE=%t" -T "ALBUM=%g" -T "DATE=%y" -T "TRACKNUMBER=%n" -T "GENRE=%m" -T "COMMENT=EAC FLAC -8" %s

TOC of the extracted CD

Track | Start | Length | Start sector | End sector
---------------------------------------------------------
1 | 0:00.00 | 3:30.54 | 0 | 15803
2 | 3:30.54 | 3:19.19 | 15804 | 30747
3 | 6:49.73 | 3:58.57 | 30748 | 48654
4 | 10:48.55 | 4:04.35 | 48655 | 66989
5 | 14:53.15 | 3:35.50 | 66990 | 83164
6 | 18:28.65 | 3:53.41 | 83165 | 100680
7 | 22:22.31 | 4:55.04 | 100681 | 122809
8 | 27:17.35 | 5:00.46 | 122810 | 145355
9 | 32:18.06 | 3:31.65 | 145356 | 161245
10 | 35:49.71 | 3:50.22 | 161246 | 178517
11 | 39:40.18 | 4:03.22 | 178518 | 196764
12 | 43:43.40 | 5:41.15 | 196765 | 222354
13 | 51:56.55 | 19:28.54 | 233755 | 321408

Track 1

Filename I:\Bitt_Upload\Gorchitza-[2011]-It`s You_flac2\01. Gorchitza - The Learning.wav

Pre-gap length 0:00:02.00

Peak level 100.0 %
Track quality 100.0 %
Test CRC C74ECEEA
Copy CRC C74ECEEA
Track not present in AccurateRip database
Copy OK

Track 2

Filename I:\Bitt_Upload\Gorchitza-[2011]-It`s You_flac2\02. Gorchitza - Final Cut.wav

Peak level 100.0 %
Track quality 99.9 %
Test CRC 73A7B1E9
Copy CRC 73A7B1E9
Track not present in AccurateRip database
Copy OK

Track 3

Filename I:\Bitt_Upload\Gorchitza-[2011]-It`s You_flac2\03. Gorchitza - Last Time.wav

Peak level 100.0 %
Track quality 99.9 %
Test CRC DCFDB649
Copy CRC DCFDB649
Track not present in AccurateRip database
Copy OK

Track 4

Filename I:\Bitt_Upload\Gorchitza-[2011]-It`s You_flac2\04. Gorchitza - Look Around.wav

Peak level 100.0 %
Track quality 100.0 %
Test CRC 2E1F89B6
Copy CRC 2E1F89B6
Track not present in AccurateRip database
Copy OK

Track 5

Filename I:\Bitt_Upload\Gorchitza-[2011]-It`s You_flac2\05. Gorchitza - Silence.wav

Peak level 100.0 %
Track quality 100.0 %
Test CRC 76FE9EC4
Copy CRC 76FE9EC4
Track not present in AccurateRip database
Copy OK

Track 6

Filename I:\Bitt_Upload\Gorchitza-[2011]-It`s You_flac2\06. Gorchitza - It`s You.wav

Peak level 100.0 %
Track quality 100.0 %
Test CRC F8B4AC33
Copy CRC F8B4AC33
Track not present in AccurateRip database
Copy OK

Track 7

Filename I:\Bitt_Upload\Gorchitza-[2011]-It`s You_flac2\07. Gorchitza - There is Hope.wav

Peak level 100.0 %
Track quality 100.0 %
Test CRC 5EF978B9
Copy CRC 5EF978B9
Track not present in AccurateRip database
Copy OK

Track 8

Filename I:\Bitt_Upload\Gorchitza-[2011]-It`s You_flac2\08. Gorchitza - Sorry.wav

Peak level 100.0 %
Track quality 100.0 %
Test CRC CA1D5CD6
Copy CRC CA1D5CD6
Track not present in AccurateRip database
Copy OK

Track 9

Filename I:\Bitt_Upload\Gorchitza-[2011]-It`s You_flac2\09. Gorchitza - Friend.wav

Peak level 100.0 %
Track quality 99.9 %
Test CRC 6AE4C272
Copy CRC 6AE4C272
Track not present in AccurateRip database
Copy OK

Track 10

Filename I:\Bitt_Upload\Gorchitza-[2011]-It`s You_flac2\10. Gorchitza - Love Again.wav

Peak level 100.0 %
Track quality 100.0 %
Test CRC 4439B121
Copy CRC 4439B121
Track not present in AccurateRip database
Copy OK

Track 11

Filename I:\Bitt_Upload\Gorchitza-[2011]-It`s You_flac2\11. Gorchitza - If.wav

Peak level 100.0 %
Track quality 100.0 %
Test CRC 02A26BFD
Copy CRC 02A26BFD
Track not present in AccurateRip database
Copy OK

Track 12

Filename I:\Bitt_Upload\Gorchitza-[2011]-It`s You_flac2\12. Gorchitza - Twinkle.wav

Peak level 97.3 %
Track quality 100.0 %
Test CRC 38A32CE2
Copy CRC 38A32CE2
Track not present in AccurateRip database
Copy OK

None of the tracks are present in the AccurateRip database

No errors occurred

End of status report
(.CUE)
REM GENRE Electronic
REM DATE 2011
REM DISCID 9210BD0D
REM COMMENT "ExactAudioCopy v0.95b3"
PERFORMER "Gorchitza"
TITLE "It`s You"
FILE "01. Gorchitza - The Learning.flac" WAVE
TRACK 01 AUDIO
TITLE "The Learning"
PERFORMER "Gorchitza"
INDEX 01 00:00:00
FILE "02. Gorchitza - Final Cut.flac" WAVE
TRACK 02 AUDIO
TITLE "Final Cut"
PERFORMER "Gorchitza"
INDEX 01 00:00:00
FILE "03. Gorchitza - Last Time.flac" WAVE
TRACK 03 AUDIO
TITLE "Last Time"
PERFORMER "Gorchitza"
INDEX 01 00:00:00
FILE "04. Gorchitza - Look Around.flac" WAVE
TRACK 04 AUDIO
TITLE "Look Around"
PERFORMER "Gorchitza"
INDEX 01 00:00:00
FILE "05. Gorchitza - Silence.flac" WAVE
TRACK 05 AUDIO
TITLE "Silence"
PERFORMER "Gorchitza"
INDEX 01 00:00:00
FILE "06. Gorchitza - It`s You.flac" WAVE
TRACK 06 AUDIO
TITLE "It`s You"
PERFORMER "Gorchitza"
INDEX 01 00:00:00
FILE "07. Gorchitza - There is Hope.flac" WAVE
TRACK 07 AUDIO
TITLE "There is Hope"
PERFORMER "Gorchitza"
INDEX 01 00:00:00
FILE "08. Gorchitza - Sorry.flac" WAVE
TRACK 08 AUDIO
TITLE "Sorry"
PERFORMER "Gorchitza"
INDEX 01 00:00:00
FILE "09. Gorchitza - Friend.flac" WAVE
TRACK 09 AUDIO
TITLE "Friend"
PERFORMER "Gorchitza"
INDEX 01 00:00:00
FILE "10. Gorchitza - Love Again.flac" WAVE
TRACK 10 AUDIO
TITLE "Love Again"
PERFORMER "Gorchitza"
INDEX 01 00:00:00
FILE "11. Gorchitza - If.flac" WAVE
TRACK 11 AUDIO
TITLE "If"
PERFORMER "Gorchitza"
INDEX 01 00:00:00
FILE "12. Gorchitza - Twinkle.flac" WAVE
TRACK 12 AUDIO
TITLE "Twinkle"
PERFORMER "Gorchitza"
INDEX 01 00:00:00
Тривалість: 00:49:21
Мова: англійська
Аудіо-кодек: FLAC
Бітрейт: 816-1035 кб/с
Джерело: rutracker.org
Додаткова інформація:
про альбом
Фактично, за три останніх роки ми бачимо вже третій альбом проекту. Про що це свідчить? Як мінімум, про затребуваність, актуальність – здається, ми про це вже говорили раніше. Отже, серйозної потреби в тому, щоб привертати увагу бонусами, не було – проект і так викликає неабияку цікавість. Тим не менш, "It's You" – це вже дводискове видання, яке містить і свіжий альбом, і DVD-додаток для шанувальників (з кліпами, перформенсами і т.д.). Тож, мабуть, справа не у привертанні уваги, а у наявності можливостей... Зрештою, чом би й ні? Gorchitza live project дуже швидко набув популярності у шанувальників стильної електроніки – умінням привнести у танцювальну музику елементи року, фанку, etc, і при цьому залишитися у дуже легкій, прозорій течії. Є моменти, коли альбом хочеться порівняти із першим весняним салатом... Начебто нічого складного не відбувається, але є тут певна "фірмовість", пісні чіпляють. І в цьому плані окремо варто подякувати, звичайно, Allois – її голос (коли сам себе питаєш – чи подобається?) нерідко стає остаточним аргументом на користь тієї чи іншої пісні. Отже, приємного прослуховування – гадаємо, саме таким воно і буде. УМКА
про ріп
Диск містить додаткові матеріали (кліпи), тому .cue робився на EAC 0.95b3 (через Retrieve Native TOC), а сам ріп на EAC 0.99pb5. Додаткові матеріали лежать в папці /Extra.
Якщо Ви справді бажаєте підтримати українське - після прослуховування, якщо музика вам сподобалась, придбайте ліцензійний диск. Підтримаймо вітчизняних виконавців!


Бронзовий реліз (на рейтинг впливає 75% завантаженого)
 Трекер:    Зареєстрований   

Завантажити / скачати українську музику



відео для новачків



 Зареєстрований:   2011-08-01 16:54
 Розмір:   508 MB 
 Оцінка музики:   9.8/10 (Голосів: 5)
   
Skiff 
музика
музика


З нами з: 12.11.07
Востаннє: 22.08.17
Повідомлень: 3057

2011-08-01 17:49  
Офіційний сайт зазначає 13 треків
Десь подівся

13. Change.
+
Цитата:
Total Running Time 52:14
Ще таке.
zeron 
Відео Гуртом - підтримка та поширення
Відео Гуртом - підтримка та поширення


З нами з: 07.05.08
Востаннє: 22.08.17
Повідомлень: 83

2011-08-01 18:23  
Skiff Така кількість треків була в роздачі. Можливо тому що:
тут
Страна-производитель диска: Россия
Издатель (лейбл): Союз/ Айкон
...і відповідно якщо відняти цей трек по часу, виходить зазначений час в роздачі, ну ще мінус паро секунд.
Я просто скопіював роздачу, бо тут тількт мп3, і то бітрейт не великий, а свого нічого не добавляв.

ssTAss 
Модератор музики


З нами з: 05.07.08
Востаннє: 23.08.17
Повідомлень: 11812

2011-08-01 19:55  
zeron написано:
Можливо тому що:

ну тоді чого пишете в графі видавець
zeron написано:
Lavina Music

??
вкажіть російського видавця
ось так
Видавець: Союз/Айкон (Росія)

zeron 
Відео Гуртом - підтримка та поширення
Відео Гуртом - підтримка та поширення


З нами з: 07.05.08
Востаннє: 22.08.17
Повідомлень: 83

2011-08-01 20:50  
Недоглядів... Виправив.
Ваш часовий пояс: GMT + 2 Години

Нова тема   Відповісти