Над законом / Above the Law (1988) AVC Ukr/Eng | sub Eng

Нові коментарі

Нова тема   Відповісти
Автор Повідомлення
Arsenfpu 
Відео Гуртом - фільмокрай
Відео Гуртом - фільмокрай


З нами з: 30.04.09
Востаннє: 06.07.20
Повідомлень: 7042

2011-07-13 21:03  
Над законом / Above the Law (1988) AVC Ukr/Eng | sub Eng



Жанр: екшн, кримінальний, трилер, бойовик, драма
Країна: США, Гонконг



Кіностудія / кінокомпанія: Warner Bros. Pictures
Режисер: Ендрю Девіс/Andrew Davis
Актори: Стівен Сігал/Steven Seagal, Пем Грієр/Pam Grier, Шерон Стоун/Sharon Stone

Сюжет:
Поліцейський з Чікаго Ніко Тоскані наштовхнувся на дуже значну справу, настільки значну, що його відсторонюють від служби, а затриманих в цій справі відпускають.
Ніко вийшов на слід колишніх співробітників ЦРУ, які перевозять наркотики і навіть готують політичне вбивство. Вони вважають, що стоять над законом. Але його закон вище…


Тривалість: 01:39:18
Якість:
Відео:
кодек:
розмір кадру: 1 024 х 576
бітрейт: 2 552 кб/с

Аудіо # 1:
мова: українська
переклад: багатоголосий закадровий , (з 5.1)
кодек: 2.0
бітрейт: 192 кб/с

Аудіо # 2:
мова: англійська
переклад: оригінал
кодек: 2.0
бітрейт: 192 кб/с

Субтитри:
мова: англійська
тип: програмні (м'які)
формат: *.srt
Скріншоти















Про файл

General
Unique ID : 159420081396305421346790097486432934432 (0x77EF30DB87F9732D5D71A67B9C0B9A20)
Complete name : C:\Above The Law (1988) [Ukr,Eng] AVC [Hurtom].
Format :
Format version : Version 4 / Version 2
File size : 2.04 GiB
Duration : 1 h 39 min
Overall bit rate : 2 935 kb/s
Movie name : Над законом / Above the Law (1988)
Encoded date : UTC 2020-06-15 20:22:08
Writing application : v21.0.0 ('Tardigrades Will Inherit The Earth') 32-bit
Writing library : libebml v1.3.5 + v1.4.8
Cover : Yes
Attachments : cover.jpg

Video
ID : 1
Format : AVC
Format/Info : Advanced Video Codec
Format profile : [email protected]
Format settings, CABAC : Yes
Format settings, ReFrames : 10 frames
Codec ID : V_MPEG4/ISO/AVC
Duration : 1 h 39 min
Bit rate : 2 552 kb/s
Width : 1 024 pixels
Height : 576 pixels
Display aspect ratio : 16:9
Frame rate mode : Constant
Frame rate : 23.976 (24000/1001) FPS
Color space : YUV
Chroma subsampling : 4:2:0
Bit depth : 8 bits
Scan type : Progressive
Bits/(Pixel*Frame) : 0.180
Stream size : 1.77 GiB (87%)
Writing library : core 130 r2273 b3065e6
Encoding settings : cabac=1 / ref=10 / deblock=1:-3:-3 / analyse=0x3:0x113 / me=umh / subme=10 / psy=1 / psy_rd=1.00:0.20 / mixed_ref=1 / me_range=32 / chroma_me=1 / trellis=2 / 8x8dct=1 / cqm=0 / deadzone=21,11 / fast_pskip=0 / chroma_qp_offset=-3 / threads=4 / lookahead_threads=1 / sliced_threads=0 / nr=0 / decimate=0 / interlaced=0 / bluray_compat=0 / constrained_intra=0 / bframes=8 / b_pyramid=2 / b_adapt=2 / b_bias=0 / direct=3 / weightb=1 / open_gop=0 / weightp=2 / keyint=240 / keyint_min=23 / scenecut=40 / intra_refresh=0 / rc_lookahead=40 / rc=2pass / mbtree=0 / bitrate=2552 / ratetol=1.0 / qcomp=0.60 / qpmin=0 / qpmax=69 / qpstep=4 / cplxblur=20.0 / qblur=0.5 / vbv_maxrate=50000 / vbv_bufsize=50000 / nal_hrd=none / ip_ratio=1.40 / pb_ratio=1.30 / aq=1:1.00
Language : English
Default : No
Forced : Yes

Audio #1
ID : 2
Format : AC-3
Format/Info : Audio Coding 3
Mode extension : CM (complete main)
Format settings, Endianness : Big
Codec ID : A_AC3
Duration : 1 h 39 min
Bit rate mode : Constant
Bit rate : 192 kb/s
Channel(s) : 2 channels
Channel positions : Front: L R
Sampling rate : 48.0 kHz
Frame rate : 31.250 FPS (1536 spf)
Compression mode : Lossy
Stream size : 136 MiB (7%)
Title : 1+1, ICTV
Language : Ukrainian
Default : Yes
Forced : Yes

Audio #2
ID : 3
Format : AC-3
Format/Info : Audio Coding 3
Mode extension : CM (complete main)
Format settings, Endianness : Big
Codec ID : A_AC3
Duration : 1 h 39 min
Bit rate mode : Constant
Bit rate : 192 kb/s
Channel(s) : 2 channels
Channel positions : Front: L R
Sampling rate : 48.0 kHz
Frame rate : 31.250 FPS (1536 spf)
Compression mode : Lossy
Stream size : 136 MiB (7%)
Language : English
Default : No
Forced : No

Text
ID : 4
Format : UTF-8
Codec ID : S_TEXT/UTF8
Codec ID/Info : UTF-8 Plain Text
Duration : 1 h 35 min
Bit rate : 68 b/s
Count of elements : 1371
Stream size : 48.1 KiB (0%)
Language : English
Default : No
Forced : No
Джерело:
Особиста оцінка: гарне кіно


Срібний реліз (на рейтинг впливає 50% завантаженого)
 Трекер:    Зареєстрований   

Завантажити / скачати фільм українською



відео для новачків



 Зареєстрований:   2020-06-16 00:07
 Розмір:   2.04 GB 
 Оцінка фільму:   7.3/10 (Голосів: 36)
   
urij546724 
Відео Гуртом - фільмокрай
Відео Гуртом - фільмокрай


З нами з: 16.03.10
Востаннє: 06.07.20
Повідомлень: 5677

2012-08-03 14:07  
У drakon87 є запис з НТН, а у dvorsky з Інтера (озвучка ТТП)
newnew 
Новенький


З нами з: 01.09.13
Востаннє: 02.07.20
Повідомлень: 5

2014-03-04 20:04  
хороший фільм !!!!
fixxa 
Свій


З нами з: 18.02.16
Востаннє: 23.06.20
Повідомлень: 145

2016-12-15 23:00  
Один із найкращих з ним)))
Аркадій Дзиґа 
VIP


З нами з: 09.10.14
Востаннє: 07.07.20
Повідомлень: 422

2020-06-07 17:59  
Озвучення двоголосе (Студія "1+1" - Листопад-1999) - Ірина Стасів та Олесь Гімбаржевський
Arsenfpu 
Відео Гуртом - фільмокрай
Відео Гуртом - фільмокрай


З нами з: 30.04.09
Востаннє: 06.07.20
Повідомлень: 7042

2020-06-16 00:07  
Реліз оновлено!
Відео змінено із на AVC

qwasasqw 
VIP


З нами з: 01.01.11
Востаннє: 07.07.20
Повідомлень: 1000

2020-06-16 00:19  
Чудово)Дякую за оновлення - це один з кращих фільмів сповненого надій, молодого спортивного чоловіка, який на той момент ще не знав, що з 95 року жанр бойовика піде на дно і що через 30 років він стане "новим русским" для того, щоб хоч щось заробити..

Також толоці бракує дилогії "В облозі" в даній якості..
У Сіґала можна дивитися всі фільми за 1988-1995.. Далі можна не дивитися..Майже всі фільми за той період (окрім одного) - є в якісному озвученні класичного 1+1..

Ваш часовий пояс: GMT + 2 Години

Нова тема   Відповісти