Ріо / Rio (2011) 720p-mini

Нові коментарі

Нова тема   Відповісти
Автор Повідомлення
Drool 
VIP


З нами з: 17.04.10
Востаннє: 16.08.17
Повідомлень: 1366

2011-07-10 11:05  
Ріо / Rio (2011) 720p-mini



Жанр: анімація, пригодницький, комедія, сімейний
Країна: США



Кіностудія / кінокомпанія: Blue Sky Studios, Twentieth Century Fox Animation
Режисер: Карлос Салдана
Ролі озвучують: Карен Дішер, Джейсон Фріччіон, Софія Скарпа Салдана, Леслі Манн, Келлі Кітон, Джессі Айзенберг, Ванда Сайкес, Джейн Лінч, Родріго Санторо, Грасінья Лепоранс

Сюжет:
Папуга-зануда залишає своє затишне та сите життя в клітці та з Міннесоти вирушає в Ріо-де-Жанейро, місто мрій усіх та кожного. Неминучі зустрічі, перешкоди, небезпеки та любов до останньої представниці свого виду змусять нашого героя по-іншому подивитись на світ та із нудного домосіда перетворитись на милого симпатягу.


Тривалість: 01:35:55
Якість: 720p-mini
Відео:
кодек:
розмір кадру: 1280x528
бітрейт: 1652 кб/с

Аудіо:
мова: українська
переклад: професійний дубльований
кодек: 5.1
бітрейт: 384 кб/с
Звіт Info
General
Unique ID : 72750798650177249431857777766535406326 (0x36BB4B4E0F47989B10016D32BA8E22F6)
Complete name : /mnt/data/Video/Rio.2011.D.Ukr...FireBit.
Format :
File size : 1.39 GiB
Duration : 1h 35mn
Overall bit rate : 2 078 Kbps
Movie name : Ріо / Rio (2011) AVC від FireBit
Encoded date : UTC 2011-07-10 07:15:28
Writing application : mkvmerge v0.7.0 ('Turn It On Again') built on Mar 6 2008 05:36:23
Writing library : libebml v0.7.7 + libmatroska v0.8.1

Video
ID : 1
Format : AVC
Format/Info : Advanced Video Codec
Format profile : [email protected]
Format settings, CABAC : Yes
Format settings, ReFrames : 5 frames
Codec ID : V_MPEG4/ISO/AVC
Duration : 1h 35mn
Bit rate : 1 652 Kbps
Width : 1 280 pixels
Height : 528 pixels
Display aspect ratio : 2.40:1
Frame rate : 23.976 fps
Color space : YUV
Chroma subsampling : 4:2:0
Bit depth : 8 bits
Scan type : Progressive
Bits/(Pixel*Frame) : 0.102
Stream size : 1.11 GiB (80%)
Title : Rio
Language : English

Audio
ID : 2
Format : AC-3
Format/Info : Audio Coding 3
Mode extension : CM (complete main)
Codec ID : A_AC3
Duration : 1h 35mn
Bit rate mode : Constant
Bit rate : 384 Kbps
Channel(s) : 6 channels
Channel positions : Front: L C R, Side: L R, LFE
Sampling rate : 48.0 KHz
Bit depth : 16 bits
Compression mode : Lossy
Delay relative to video : 3ms
Stream size : 263 MiB (18%)
Title : Ukrainian
Language : Ukrainian
Переклад і озвучення виконано:
Скріншоти





Джерело: 720p-mini від FireBit (вирізано російську та англійську доріжки)
Особиста оцінка: 10 - без зайвих вагань рекомендую всім!


 Трекер:    Зареєстрований   

Завантажити / скачати мультфільм українською



відео для новачків



 Зареєстрований:   2011-07-10 11:05
 Розмір:   1.39 GB 
 Оцінка мультфільму:   9.7/10 (Голосів: 28)
   
Інші релізи
   Ріо / Rio (2011) 1080р Ukr/Eng | Sub Eng kvvdvd  9 / 0   7.33 GB   2016-11-22 03:03 
   Ріо / Rio (2011) 720p Ukr/Eng | Sub Ukr/Eng (60fps) Drool  2 / 0   7.86 GB   2014-07-08 08:56 
   Ріо / Rio (2011) 720p Ukr/Eng | Sub Ukr/Eng Dim-ON  8 / 0   4.33 GB   2011-12-05 00:49 
   Ріо / Rio (2011) FaB0SS  6 / 0   745 MB   2011-08-11 20:15 
   Ріо / Rio (2011) [iPod Touch,480x200] Бузьок  1 / 0   283 MB   2011-06-11 21:31 
braveboy 
Відео Гуртом - команда HD
Відео Гуртом - команда HD


З нами з: 15.06.10
Востаннє: 13.08.17
Повідомлень: 949

2011-11-18 23:58  
Drool написано:
AVC


720p-mini

xfsolya 
Частий відвідувач


З нами з: 30.12.08
Востаннє: 20.04.15
Повідомлень: 31

2011-11-27 21:55  
Не поганий мультик.
Тільки зображення троха квадратує а так то норм. Голос Еріки сподобався ну і взагалі українська озвучка (:

bot 
робот


З нами з: 30.09.07
Востаннє: 26.05.05
Повідомлень: 17362

2014-07-08 08:31  
Тему перенесено з Мультфільми до форуму Мультфільми в HD


Drool

Ваш часовий пояс: GMT + 2 Години

Нова тема   Відповісти