Макс і його компанія / Max & Co (2007) 720p Ukr/Fre | Sub Ukr

Нові коментарі

Нова тема   Відповісти
Автор Повідомлення
braveboy 
Відео Гуртом - команда HD
Відео Гуртом - команда HD


З нами з: 15.06.10
Востаннє: 13.08.17
Повідомлень: 949

2011-07-01 22:35  

Макс і його компанія / Max & Co (2007) 720p Ukr/Fre | Sub Ukr



«Мухозабійні пригоди!»

Жанр: сімейний, пригоди
Країна: Франція, Великобританія, Швейцарія, Бельгія



Кіностудія / кінокомпанія: Renato Berta
Режисер: Фридерик Гійом / Frederic Guillaume, Семюел Гийом / Samuel Guillaume
Актори: Лоран Дойч, Сансеверіно, Вірджинія Ефіру, Патрік Бушіте, Дені Подалідес, Амелі Лерма, Мішлін Декс

Сюжет:
З раннього дитинства Макс знав, що коли він виросте, обов'язково знайде свого знаменитого батька, Джоні бігуді, який безслідно зник незабаром після його народження. Роки пролетіли, а Макс не забув своєї давньої мрії, і одного разу він відправляється в подорож. На шляху до заповітної мети хлопчика чекають дивовижні пригоди і нові вірні друзі ...

Деякі факти

Глядачі і цінителі мультиплікації відзначають, що звичні «діснеївські схеми» на щастя не взяли верх і мультфільм «Макс і його компанія» повністю відповідає класичним традиціям французької мультиплікації. Дружня, жива атмосфера, чудові діалоги, досить серйозні проблеми, які в певному роді перегукуються з реальними життєвими - на тлі чудово відпрацьованих сільських декорацій і краєвидів. Чудові і ляльки, які задіяні в картині.
Тривалість: 01:15:39
Якість: 720p
Відео:
кодек:
розмір кадру: 1280 x 720
бітрейт: 3671 кб/с

Аудіо # 1:
мова: українська
переклад: багатоголосий закадровий
кодек: 2.0
бітрейт: 192 кб/с

Аудіо # 2:
мова: французька
переклад: оригінал
кодек: 2.0
бітрейт: 192 кб/с

Переклад і озвучення виконано:


Субтитри:
мова: українська
тип: програмні (м'які)
формат: *.srt

Подяка Merdiff за запис звуку
hellforces за український постер
720p by braveboy
Info

Video
ID : 1
Format : AVC
Format/Info : Advanced Video Codec
Format profile : [email protected]
Format settings, CABAC : Yes
Format settings, ReFrames : 8 frames
Codec ID : V_MPEG4/ISO/AVC
Duration : 1h 12mn
Bit rate : 3 940 Kbps
Width : 1 280 pixels
Height : 720 pixels
Display aspect ratio : 16:9
Frame rate mode : Constant
Frame rate : 23.976 fps
Color space : YUV
Chroma subsampling : 4:2:0
Bit depth : 8 bits
Scan type : Progressive
Bits/(Pixel*Frame) : 0.178
Stream size : 1.95 GiB (89%)
Title : Max & Co (2007) 720p by braveboy
Writing library : core 125 r2208 d9d2288
Encoding settings : cabac=1 / ref=8 / deblock=1:-3:-3 / analyse=0x3:0x133 / me=umh / subme=9 / psy=1 / psy_rd=0.80:0.00 / mixed_ref=1 / me_range=32 / chroma_me=1 / trellis=1 / 8x8dct=1 / cqm=0 / deadzone=21,11 / fast_pskip=0 / chroma_qp_offset=-2 / threads=6 / lookahead_threads=1 / sliced_threads=0 / nr=0 / decimate=0 / interlaced=0 / bluray_compat=0 / constrained_intra=0 / bframes=6 / b_pyramid=2 / b_adapt=2 / b_bias=0 / direct=3 / weightb=1 / open_gop=0 / weightp=2 / keyint=240 / keyint_min=23 / scenecut=40 / intra_refresh=0 / rc=2pass / mbtree=0 / bitrate=3940 / ratetol=1.0 / qcomp=0.60 / qpmin=10 / qpmax=51 / qpstep=4 / cplxblur=20.0 / qblur=0.5 / ip_ratio=1.40 / pb_ratio=1.30 / aq=1:1.00
Default : Yes
Forced : No

Audio #1
ID : 2
Format : AC-3
Format/Info : Audio Coding 3
Mode extension : CM (complete main)
Format settings, Endianness : Big
Codec ID : A_AC3
Duration : 1h 12mn
Bit rate mode : Constant
Bit rate : 192 Kbps
Channel(s) : 2 channels
Channel positions : Front: L R
Sampling rate : 44.1 KHz
Bit depth : 16 bits
Compression mode : Lossy
Stream size : 99.7 MiB (4%)
Title : 2.0 @ 192 kbps [1+1]
Language : Ukrainian
Default : Yes
Forced : No

Audio #2
ID : 3
Format : AC-3
Format/Info : Audio Coding 3
Mode extension : CM (complete main)
Format settings, Endianness : Big
Codec ID : A_AC3
Duration : 1h 12mn
Bit rate mode : Constant
Bit rate : 192 Kbps
Channel(s) : 2 channels
Channel positions : Front: L R
Sampling rate : 44.1 KHz
Bit depth : 16 bits
Compression mode : Lossy
Stream size : 99.7 MiB (4%)
Title : 2.0 @ 192 kbps
Language : French
Default : No
Forced : No

Text
ID : 4
Format : UTF-8
Codec ID : S_TEXT/UTF8
Codec ID/Info : UTF-8 Plain Text
Title : Full
Language : Ukrainian
Default : No
Forced : No

Menu
00:00:00.000 : en:00:00:00.000
00:06:45.405 : en:00:06:45.405
00:15:16.916 : en:00:15:16.916
00:21:16.275 : en:00:21:16.275
00:29:05.744 : en:00:29:05.744
00:36:18.176 : en:00:36:18.176
00:42:47.565 : en:00:42:47.565
00:49:36.974 : en:00:49:36.974
00:57:07.424 : en:00:57:07.424
01:03:47.824 : en:01:03:47.824
01:11:24.280 : en:01:11:24.280
log

[info]: frame I:863 Avg QP:12.81 size:107737
[info]: frame P:24572 Avg QP:13.97 size: 47844
[info]: frame B:79005 Avg QP:15.14 size: 11093
[info]: consecutive B-frames: 2.1% 4.8% 13.6% 24.7% 15.3% 20.2% 19.4%
[info]: mb I I16..4: 9.6% 72.4% 18.1%
[info]: mb P I16..4: 3.1% 13.4% 3.1% P16..4: 39.0% 18.2% 16.8% 0.7% 0.3% skip: 5.6%
[info]: mb B I16..4: 0.4% 1.0% 0.4% B16..8: 29.1% 8.4% 2.5% direct: 5.5% skip:52.7% L0:43.0% L1:48.4% BI: 8.6%
[info]: 8x8 transform intra:66.8% inter:54.9%
[info]: direct mvs spatial:99.6% temporal:0.4%
[info]: coded y,uvDC,uvAC intra: 77.7% 76.5% 65.6% inter: 23.3% 28.3% 13.2%
[info]: i16 v,h,dc,p: 46% 23% 12% 19%
[info]: i8 v,h,dc,ddl,ddr,vr,hd,vl,hu: 15% 14% 17% 7% 9% 9% 9% 9% 11%
[info]: i4 v,h,dc,ddl,ddr,vr,hd,vl,hu: 16% 15% 10% 8% 11% 10% 11% 9% 11%
[info]: i8c dc,h,v,p: 44% 26% 22% 8%
[info]: Weighted P-Frames: Y:4.4% UV:2.2%
[info]: ref P L0: 56.9% 5.4% 14.1% 6.0% 5.5% 4.4% 3.7% 2.8% 1.1% 0.0%
[info]: ref B L0: 74.6% 13.0% 5.4% 2.7% 2.3% 1.4% 0.7%
[info]: ref B L1: 94.0% 6.0%
[info]: kb/s:3939.42
Скріншоти:


Особиста оцінка: 0 - не дивився


 Трекер:    Зареєстрований   

Завантажити / скачати мультфільм українською



відео для новачків



 Зареєстрований:   2013-02-25 22:35
 Розмір:   2.19 GB 
 Оцінка мультфільму:   9.5/10 (Голосів: 6)
   
Інші релізи
MutuLI 
Відео Гуртом - фільмокрай
Відео Гуртом - фільмокрай


З нами з: 08.03.09
Востаннє: 21.08.17
Повідомлень: 1301

2011-07-01 22:43  
Якщо почекаєш, то десь наступного тижня зорблю укр. доріжку, сирець вже маю
bot 
робот


З нами з: 30.09.07
Востаннє: 26.05.05
Повідомлень: 17407

2011-07-04 04:12  
Тему перенесено з Анонси релізів від Відео Гуртом до форуму Мультфільми в HD


igorgladunyak

low 
Свій


З нами з: 21.10.09
Востаннє: 21.08.17
Повідомлень: 63

2011-07-04 15:48  
А , який би читався на DVD-програвачах, буде?
braveboy 
Відео Гуртом - команда HD
Відео Гуртом - команда HD


З нами з: 15.06.10
Востаннє: 13.08.17
Повідомлень: 949

2011-07-05 06:01  
low написано:
А , який би читався на DVD-програвачах, буде?

Буде від MutuLI

Konfucius 
Управління
Управління


З нами з: 30.09.07
Востаннє: 21.08.17
Повідомлень: 4942

2013-02-26 15:44  
Постер не відображається. І станьте на роздачу.
braveboy 
Відео Гуртом - команда HD
Відео Гуртом - команда HD


З нами з: 15.06.10
Востаннє: 13.08.17
Повідомлень: 949

2013-02-26 16:20  
Konfucius написано:
Постер не відображається. І станьте на роздачу

перезалив постер і став на роздачу

natashelka 
VIP


З нами з: 23.05.10
Востаннє: 21.08.17
Повідомлень: 453

2015-09-27 12:27  
класний мульт. рекомендую
Ваш часовий пояс: GMT + 2 Години

Нова тема   Відповісти