Мадагаскар / Madagascar (2005) 720p 2xUkr/Eng | Sub Ukr/Eng

Нові коментарі

Нова тема   Відповісти
Автор Повідомлення
braveboy 
Відео Гуртом - команда HD
Відео Гуртом - команда HD


З нами з: 15.06.10
Востаннє: 24.08.17
Повідомлень: 949

2011-06-29 01:33  

Мадагаскар / Madagascar (2005) 720p 2xUkr/Eng | Sub Ukr/Eng


Мадагаскар / Madagascar (2005) 720p 2xUkr/Eng | Sub Ukr/Eng


Жанр: комедія, пригоди, сімейний, мультфільм
Країна: США



Кіностудія / кінокомпанія: DreamWorks SKG, Pacific Data Images (PDI), DreamWorks Animation
Режисер: Ерік Дарнел, Том МакҐрат
Актори: Бен Стіллер, Кріс Рок, Девід Швіммер, Джада Пінкетт Сміт, Саша Барон Коен, Седрік зе Ентертейнер, Енді Ріхтер, Том МакГрат, Крістофер Найтс, Кріс Міллер, Конрад Вернон, Ерік Дарнелл, Девід Кауджілл, Стефен Апостоліна, Еліза Габрієллі, Девіка Паріх, Девід П. Сміт, Коуді Камерон, Боб Сагет.

Сюжет
У центральному зоопарку Нью-Йорка жили-були четверо нерозлучних друзів: Лев, Зебра, Жираф і вагітна гиппопотамиха. Коли один з «мушкетерів» таємничо зник, інші тут же відправилися на пошуки друга. Радісна зустріч відбулася, але незабаром всю веселу четвірку зловили і відправили додому.. до Африки. В дорозі їх наздогнала корабельна аварія, і прокинулися друзі на березі загадкового місця під назвою Мадагаскар.

Все життя «мандрівники» знаходилися під опікою людей, і в світі дикої природи їм належить дізнатися багато нового. Наприклад, те, що один з них, лев, генетично схильний з'їсти своїх кращих друзів. Не менш цікавим виявиться і знайомство з «місцевими жителями», які намагаються використовувати новачків в своїх цілях.



Тривалість: 01:25:57
Якість: 720p
Відео:
кодек:
розмір кадру: 1280 х 720
бітрейт: 4798 кб/с

Аудіо # 1:
мова: українська
переклад: багатоголосий закадровий [ІНТЕР]
кодек: 2.0
бітрейт: 192 кб/с

Аудіо # 2:
мова: українська
переклад: багатоголосий закадровий [Новий канал]
кодек: 2.0
бітрейт: 192 кб/с

Аудіо # 3:
мова: англійська
переклад: оригінал
кодек: 5.1
бітрейт: 640 кб/с

Переклад і озвучення виконано:


Субтитри:
мова: українська
тип: програмні (м'які)
формат: *.srt

Субтитри:
мова: англійська
тип: програмні (м'які)
формат: *.srt

720p by braveboy
log

[info]: frame I:1191 Avg QP:15.10 size:177258
[info]: frame P:29895 Avg QP:17.36 size: 49197
[info]: frame B:92505 Avg QP:19.18 size: 15235
[info]: consecutive B-frames: 3.2% 2.7% 12.4% 29.4% 15.0% 34.4% 2.9%
[info]: mb I I16..4: 5.2% 66.9% 27.9%
[info]: mb P I16..4: 0.9% 10.9% 2.7% P16..4: 33.1% 16.6% 16.1% 1.3% 0.4% skip:18.0%
[info]: mb B I16..4: 0.1% 1.4% 0.5% B16..8: 25.1% 10.2% 3.8% direct: 4.8% skip:53.9% L0:39.4% L1:44.0% BI:16.6%
[info]: 8x8 transform intra:72.4% inter:46.1%
[info]: coded y,uvDC,uvAC intra: 88.7% 88.8% 73.7% inter: 21.1% 19.1% 9.8%
[info]: i16 v,h,dc,p: 48% 13% 6% 34%
[info]: i8 v,h,dc,ddl,ddr,vr,hd,vl,hu: 11% 12% 7% 9% 12% 12% 12% 11% 13%
[info]: i4 v,h,dc,ddl,ddr,vr,hd,vl,hu: 10% 9% 4% 9% 17% 14% 14% 11% 12%
[info]: i8c dc,h,v,p: 45% 22% 17% 17%
[info]: Weighted P-Frames: Y:4.4% UV:2.7%
[info]: ref P L0: 52.2% 8.0% 18.5% 5.9% 5.3% 3.7% 3.6% 2.2% 0.5% 0.0%
[info]: ref B L0: 71.9% 12.8% 6.1% 3.7% 3.0% 1.8% 0.7%
[info]: ref B L1: 92.7% 7.3%
[info]: kb/s:4797.38
Info

Format :
Format version : Version 4 / Version 2
File size : 3.49 GiB
Duration : 1h 25mn
Overall bit rate : 5 821 Kbps
Movie name : Madagascar (2005) 720p by braveboy
Encoded date : UTC 2013-04-09 14:32:34
Writing application : mkvmerge v6.1.0 ('Old Devil') built on Mar 2 2013 14:32:37
Writing library : libebml v1.3.0 + libmatroska v1.4.0

Video
ID : 1
Format : AVC
Format/Info : Advanced Video Codec
Format profile : [email protected]
Format settings, CABAC : Yes
Format settings, ReFrames : 8 frames
Codec ID : V_MPEG4/ISO/AVC
Duration : 1h 25mn
Bit rate : 4 798 Kbps
Width : 1 280 pixels
Height : 720 pixels
Display aspect ratio : 16:9
Frame rate mode : Constant
Frame rate : 23.976 fps
Color space : YUV
Chroma subsampling : 4:2:0
Bit depth : 8 bits
Scan type : Progressive
Bits/(Pixel*Frame) : 0.217
Stream size : 2.81 GiB (80%)
Title : Madagascar (2005) 720p by braveboy
Writing library : core 129 r2245 bc13772
Encoding settings : cabac=1 / ref=8 / deblock=1:-3:-3 / analyse=0x3:0x133 / me=umh / subme=10 / psy=1 / psy_rd=0.80:0.00 / mixed_ref=1 / me_range=34 / chroma_me=1 / trellis=2 / 8x8dct=1 / cqm=0 / deadzone=21,11 / fast_pskip=0 / chroma_qp_offset=-2 / threads=6 / lookahead_threads=1 / sliced_threads=0 / nr=0 / decimate=0 / interlaced=0 / bluray_compat=0 / constrained_intra=0 / bframes=6 / b_pyramid=2 / b_adapt=2 / b_bias=0 / direct=1 / weightb=1 / open_gop=0 / weightp=2 / keyint=240 / keyint_min=24 / scenecut=40 / intra_refresh=0 / rc=2pass / mbtree=0 / bitrate=4798 / ratetol=1.0 / qcomp=0.60 / qpmin=10 / qpmax=51 / qpstep=4 / cplxblur=20.0 / qblur=0.5 / ip_ratio=1.40 / pb_ratio=1.30 / aq=1:1.00
Default : Yes
Forced : No

Audio #1
ID : 2
Format : AC-3
Format/Info : Audio Coding 3
Mode extension : CM (complete main)
Format settings, Endianness : Big
Codec ID : A_AC3
Duration : 1h 25mn
Bit rate mode : Constant
Bit rate : 192 Kbps
Channel(s) : 2 channels
Channel positions : Front: L R
Sampling rate : 48.0 KHz
Bit depth : 16 bits
Compression mode : Lossy
Stream size : 118 MiB (3%)
Title : 2.0 @ 192 kbps [Inter]
Language : Ukrainian
Default : Yes
Forced : No

Audio #2
ID : 3
Format : AC-3
Format/Info : Audio Coding 3
Mode extension : CM (complete main)
Format settings, Endianness : Big
Codec ID : A_AC3
Duration : 1h 25mn
Bit rate mode : Constant
Bit rate : 192 Kbps
Channel(s) : 2 channels
Channel positions : Front: L R
Sampling rate : 48.0 KHz
Bit depth : 16 bits
Compression mode : Lossy
Stream size : 118 MiB (3%)
Title : 2.0 @ 192 kbps [Novy]
Language : Ukrainian
Default : No
Forced : No

Audio #3
ID : 4
Format : AC-3
Format/Info : Audio Coding 3
Mode extension : CM (complete main)
Format settings, Endianness : Big
Codec ID : A_AC3
Duration : 1h 25mn
Bit rate mode : Constant
Bit rate : 640 Kbps
Channel(s) : 6 channels
Channel positions : Front: L C R, Side: L R, LFE
Sampling rate : 48.0 KHz
Bit depth : 16 bits
Compression mode : Lossy
Stream size : 393 MiB (11%)
Title : 5.1 @ 640 kbps
Language : English
Default : No
Forced : No

Text #1
ID : 5
Format : UTF-8
Codec ID : S_TEXT/UTF8
Codec ID/Info : UTF-8 Plain Text
Title : Full
Language : Ukrainian
Default : No
Forced : No

Text #2
ID : 6
Format : UTF-8
Codec ID : S_TEXT/UTF8
Codec ID/Info : UTF-8 Plain Text
Title : Full
Language : English
Default : No
Forced : No

Menu
00:00:00.000 : en:00:00:00.000
00:05:33.124 : en:00:05:33.124
00:08:34.097 : en:00:08:34.097
00:12:39.425 : en:00:12:39.425
00:17:55.533 : en:00:17:55.533
00:22:31.517 : en:00:22:31.517
00:26:55.239 : en:00:26:55.239
00:30:57.314 : en:00:30:57.314
00:35:29.461 : en:00:35:29.461
00:40:05.194 : en:00:40:05.194
00:44:33.379 : en:00:44:33.379
00:48:50.970 : en:00:48:50.970
00:52:17.468 : en:00:52:17.468
00:57:16.016 : en:00:57:16.016
01:02:15.315 : en:01:02:15.315
01:06:55.136 : en:01:06:55.136
01:12:35.726 : en:01:12:35.726
01:16:18.699 : en:01:16:18.699
01:18:17.276 : en:01:18:17.276
01:18:54.396 : en:01:18:54.396
Скріншоти:

Особиста оцінка: 10 - без зайвих вагань рекомендую всім!


Срібний реліз (на рейтинг впливає 50% завантаженого)
 Трекер:    Зареєстрований   

Завантажити / скачати мультфільм українською



відео для новачків



 Зареєстрований:   2013-04-09 18:01
 Розмір:   3.49 GB 
 Оцінка мультфільму:   9.8/10 (Голосів: 58)
   
Seriy100293 
VIP


З нами з: 17.08.11
Востаннє: 24.08.17
Повідомлень: 319

2013-04-09 19:59  
Як озвучення у Інтера? Краще за "Новий"?
leroykendall 
Модератор HD


З нами з: 03.01.11
Востаннє: 23.08.17
Повідомлень: 750

2013-04-09 22:09  
braveboy написано:
Актори: ен Стіллер

Опечатка?

braveboy 
Відео Гуртом - команда HD
Відео Гуртом - команда HD


З нами з: 15.06.10
Востаннє: 24.08.17
Повідомлень: 949

2013-04-09 22:12  
leroykendall написано:
Опечатка?

виправив

WolfGhoST 
Частий відвідувач


З нами з: 29.12.11
Востаннє: 17.10.13
Повідомлень: 31

2013-04-10 01:10  
а інші частини цього мультика від вас будуть?
braveboy 
Відео Гуртом - команда HD
Відео Гуртом - команда HD


З нами з: 15.06.10
Востаннє: 24.08.17
Повідомлень: 949

2013-04-10 02:56  
WolfGhoST написано:
а інші частини цього мультика від вас будуть?

буде тільки друга частина

braveboy 
Відео Гуртом - команда HD
Відео Гуртом - команда HD


З нами з: 15.06.10
Востаннє: 24.08.17
Повідомлень: 949

2013-04-18 05:01  
на роздачі буду місяць
braveboy 
Відео Гуртом - команда HD
Відео Гуртом - команда HD


З нами з: 15.06.10
Востаннє: 24.08.17
Повідомлень: 949

2013-05-14 05:44  
до понеділка буду на роздачі після того роздачу припиняю
BGD-2012 
Свій


З нами з: 06.05.12
Востаннє: 05.08.17
Повідомлень: 77

2016-01-14 18:54  
Нарешті смішний мультфільм.
Ваш часовий пояс: GMT + 2 Години

Нова тема   Відповісти