Завантажити та скачати торренти українською


Павло Табаков - Ти підпалила рай (2009) [APE] | Pop

Нові коментарі

Нова тема   Відповісти
Останній раз роздавалося Myfordownloads (2016-09-30)
Автор Повідомлення
ssTAss 
Модератор музики


З нами з: 05.07.08
Востаннє: 26.02.17
Повідомлень: 11196

2011-06-28 20:59  
Павло Табаков - Ти підпалила рай (2009) [APE] | Pop



Стиль: Pop
Країна, місто: Україна, Львів
Сайти: Офіційний сайт
Видавець: Астра Рекордс
Виконавці:
Павло Табаков


Павло Табаков народився 27.04.1978 р. Закінчив Львівське музично-педагогічне училище і Львівську музичну академію ім. М. Лисенка (клас акордеону; грає також на фортепіано та гітарі). Працював у колективі "Менестрелі", який проіснував шість років.
Три з половиною роки – соліст і аранжувальник октету класичної та народної музики "Орфей". Із "Орфеєм" об'їздив усю Європу, виступав на фестивалях та концертах в Англії, Швейцарії, Голландії, Німеччині та Польщі. Хлопці випустили три диски: духовна музика, український фольклор і світові хіти.
У джаз-проект Colored shadows Павло був запрошений як джазовий соліст, і співпрацював із солісткою цього гурту Брією Блессінг (USA), котра живе цією музикою. Він викладає музику та вокал у Львівській фінансовій академії. Володіє польською, англійською та французькою.
Проект "Шанс" дав Павлові Табакову можливість засвітитися перед публікою, показати, що у Львові не зникли ще здібні співаки – і подивитися на шоу-бізнес із висоти столичних сцен.

На "Шансі" Павло Табаков виконав арію Le temps des cathedrale з мюзиклу "Notre Dame de Paris". Понад 132 000 мешканців України проголосували за успішний виступ Павла Табакова...
Пісні:
    1. Ти підпалила рай
    2. На краю
    3. Янголя
    4. Все залиши як є
    5. Самота
    6. Переплетені долі
    7. Відлітай
    8. Шумить пшениця, як Дунай
    9. Народження дня
    10. Шоколадний шок
    11. I'll be with you
log

Exact Audio Copy V0.99 prebeta 4 from 23. January 2008

Звіт EAC про видобування, котре виконане 12. липня 2010, 2:58

Pavlo Tabakov / Ty pidpalyla ray

Дисковод: _NEC DVD_RW ND-4570A Adapter: 5 ID: 0

Режим читання : Точний
Використати точний потік : Так
Вимкнути аудіо кеш : Так
Застосувати мітки C2 : Ні

Корекція зміщення при читанні : 48
Екстрачитання областей Lead-in і Lead-out : Ні
Заповнення пропущених семплів тишею : Так
Видалення блоків з тишею на початку і кінці : Ні
При вирахуванні CRC використовувались нульові семпли : Так
Використаний інтерфейс : Встановлений зовнішній ASPI-інтерфейс

Застосований вихідний формат : Внутрішні WAV-операції
Формат семпла : 44.100 Гц; 16 біт; стерео

TOC видобутого CD

Трек | Старт | Довжина | Початковий сектор | Кінцевий сектор
------------------------------------------------------------------
1 | 0:00.00 | 3:40.37 | 0 | 16536
2 | 3:40.37 | 3:26.34 | 16537 | 32020
3 | 7:06.71 | 4:01.36 | 32021 | 50131
4 | 11:08.32 | 3:17.34 | 50132 | 64940
5 | 14:25.66 | 4:16.10 | 64941 | 84150
6 | 18:42.01 | 3:26.49 | 84151 | 99649
7 | 22:08.50 | 3:54.39 | 99650 | 117238
8 | 26:03.14 | 3:42.07 | 117239 | 133895
9 | 29:45.21 | 4:00.55 | 133896 | 151950
10 | 33:46.01 | 3:24.69 | 151951 | 167319
11 | 37:10.70 | 3:28.41 | 167320 | 182960

Статус діапазону і помилки

Обраний діапазон

Ім'я файлу J:\Tabakov\Pavlo Tabakov - Ty pidpalyla ray.wav

Піковий рівень 99.1 %
Якість діапазону 100.0 %
CRC тесту 4DBF225B
CRC копії 4DBF225B
Копіювання... OK

Помилки не траплялися

Звіт Точного Видобування

Трек 1 не присутнє в базі даних
Трек 2 не присутнє в базі даних
Трек 3 не присутнє в базі даних
Трек 4 не присутнє в базі даних
Трек 5 не присутнє в базі даних
Трек 6 не присутнє в базі даних
Трек 7 не присутнє в базі даних
Трек 8 не присутнє в базі даних
Трек 9 не присутнє в базі даних
Трек 10 не присутнє в базі даних
Трек 11 не присутнє в базі даних

Жодного трека немає в базі AccurateRip

Кінець звіту
fooCDtect

fooCDtect - foobar2000 + auCDtect, baralgin.

auCDtect: CD records authenticity detector, version 0.8.2
Copyright (c) 2004 Oleg Berngardt. All rights reserved.
Copyright (c) 2004 Alexander Djourik. All rights reserved.

mode: 0

=======================================================
Track: 01 - Ти підпалила рай
Quality: CDDA, 100%
=======================================================
Track: 02 - На краю
Quality: CDDA, 100%
=======================================================
Track: 03 - Янголя
Quality: CDDA, 100%
=======================================================
Track: 04 - Все залиши як є
Quality: CDDA, 100%
=======================================================
Track: 05 - Самота
Quality: CDDA, 100%
=======================================================
Track: 06 - Переплетені долі
Quality: CDDA, 100%
=======================================================
Track: 07 - Відлітай
Quality: CDDA, 100%
=======================================================
Track: 08 - Шумить пшениця, як Дунай
Quality: CDDA, 100%
=======================================================
Track: 09 - Народження дня
Quality: CDDA, 100%
=======================================================
Track: 10 - Шоколадний шок
Quality: CDDA, 100%
=======================================================
Track: 11 - I'll be with you
Quality: CDDA, 100%
=======================================================
Тривалість: 00:40:39
Мова: українська, англійська (11)
Аудіо-кодек: APE
Бітрейт: 935 кб/с
Джерело: інтернет
Додаткова інформація:
Павло Табаков видає вже третій сольний альбом. Це – добре. І тому, що він створює якісну україномовну поп-музику – а останні кілька місяців наші поп-виконавці не надто густо тішать нас появою свіжих записів. І тому, що Павло Табаков має дійсно гарний голос – гнучкий, виразний, емоційний, здатний однаково добре передати і прозору м’якість, і сильну пристрасть, і масу інших тонів та відтінків. Це добре і тому, що мало кому з молодих виконавців вдається за такий короткий проміжок часу (близько двох років) видати стільки повноцінних, цікавих робіт. Характерно, що з виданням альбомів Табакову допомагають меценати – тому, гадаємо, що це якраз той випадок, коли талант виконавця є дійсно очевидним... Утім, окрім таланту, Павло Табаков має за плечима ще й вищу музичну освіту – та чималий досвід у створенні та виконанні дуже різної музики. Щоправда, знайти його записи, зроблені у складі "Менестрелів" та "Орфею", сьогодні доволі складно – на жаль. Тож тим приємніше, що його нові, сольні роботи знайти не так важко – і вони стабільно тішать професійним, якісним виконанням.


Якщо Ви справді бажаєте підтримати українське - після прослуховування, якщо музика вам сподобалась,
придбайте ліцензійний диск.
Підтримаймо вітчизняних виконавців!


Срібний реліз (на рейтинг впливає 50% завантаженого)
 Трекер:    Зареєстрований   

Завантажити / скачати українську музику



відео для новачків



 Зареєстрований:   2011-06-28 20:59
 Розмір:   272 MB 
 Оцінка музики:   7.8/10 (Голосів: 12)
   
Ваш часовий пояс: GMT + 2 Години

Нова тема   Відповісти