Будинок-монстр / Monster House (2006) 720p Ukr/Eng | Sub Ukr/Eng

Нові коментарі

Нова тема   Відповісти
Автор Повідомлення
braveboy 
Відео Гуртом - команда HD
Відео Гуртом - команда HD


З нами з: 15.06.10
Востаннє: 13.08.17
Повідомлень: 949

2011-06-25 07:20  

Будинок-монстр / Monster House (2006) 720p Ukr/Eng | Sub Ukr/Eng


Жанр: сімейний, фентезі, мультфільм, детектив
Країна: США


Кіностудія / кінокомпанія: Relativity Media ImageMovers Amblin Entertainment
Режисер: Джил Кенан
Актори: Браян Раєрз-Краз, Сем Лернер, Спенсер Лок, Стів Бушемі, Нік Кеннон, Меггі Джиленхаал, Кевін Джеймс, Джейсон Лі, Катерін О'Хара, Кетлін Тернер, Фред Віллард
Касові збори

Бюджет фільму становить $75 млн. У США "Будинок-монстр" отримав $73,661,010, за кордоном - $66,513,996 (усього - $140,175,006).
Сюжет:
Троє підлітків виявляють, що сусідський будинок через дорогу - насправді монстр, який пожирає все і всіх хто потрапив йому в полон.



Тривалість: 01:30:38
Якість: 720p
Відео:
кодек:
розмір кадру: 1280 x 534
бітрейт: 4924 кб/с

Аудіо # 1:
мова: українська
переклад: багатоголосий закадровий
кодек: 5.1
бітрейт: 448 кб/с

Аудіо # 2:
мова: англійська
переклад: оригінал
кодек: 5.1
бітрейт: 1509 кб/с

Переклад і озвучення виконано:


Субтитри:
мова: українська
тип: програмні (м'які)
формат: *.srt

Субтитри:
мова: англійська
тип: програмні (м'які)
формат: *.srt
720p by braveboy
log

[info]: frame I:1060 Avg QP:14.40 size:124901
[info]: frame P:34499 Avg QP:15.96 size: 48804
[info]: frame B:94832 Avg QP:17.70 size: 16147
[info]: consecutive B-frames: 3.9% 7.2% 10.8% 32.5% 16.5% 25.7% 3.5%
[info]: mb I I16..4: 7.0% 66.3% 26.6%
[info]: mb P I16..4: 1.6% 13.7% 3.9% P16..4: 29.6% 20.9% 20.7% 2.3% 0.9% skip: 6.5%
[info]: mb B I16..4: 0.1% 1.4% 0.5% B16..8: 34.4% 15.8% 6.2% direct: 6.5% skip:35.1% L0:40.2% L1:43.0% BI:16.8%
[info]: 8x8 transform intra:70.1% inter:52.5%
[info]: coded y,uvDC,uvAC intra: 90.4% 92.8% 83.3% inter: 36.2% 35.3% 19.2%
[info]: i16 v,h,dc,p: 45% 12% 11% 33%
[info]: i8 v,h,dc,ddl,ddr,vr,hd,vl,hu: 13% 9% 7% 10% 13% 12% 12% 11% 13%
[info]: i4 v,h,dc,ddl,ddr,vr,hd,vl,hu: 15% 7% 4% 9% 15% 13% 13% 11% 13%
[info]: i8c dc,h,v,p: 46% 22% 17% 14%
[info]: Weighted P-Frames: Y:8.8% UV:6.0%
[info]: ref P L0: 53.6% 10.1% 15.9% 6.2% 4.8% 3.6% 3.2% 2.1% 0.4% 0.0%
[info]: ref B L0: 78.4% 10.6% 4.7% 2.6% 1.9% 1.2% 0.5%
[info]: ref B L1: 93.8% 6.2%
[info]: kb/s:4923.99
Info

Video
ID : 1
Format : AVC
Format/Info : Advanced Video Codec
Format profile : [email protected]
Format settings, CABAC : Yes
Format settings, ReFrames : 8 frames
Codec ID : V_MPEG4/ISO/AVC
Duration : 1h 30mn
Bit rate : 4 924 Kbps
Width : 1 280 pixels
Height : 534 pixels
Display aspect ratio : 2.40:1
Frame rate mode : Constant
Frame rate : 23.976 fps
Color space : YUV
Chroma subsampling : 4:2:0
Bit depth : 8 bits
Scan type : Progressive
Bits/(Pixel*Frame) : 0.300
Stream size : 3.03 GiB (70%)
Title : Monster House (2006) 720p by braveboy
Writing library : core 129 r2245 bc13772
Encoding settings : cabac=1 / ref=8 / deblock=1:-2:-2 / analyse=0x3:0x133 / me=umh / subme=9 / psy=1 / psy_rd=0.95:0.00 / mixed_ref=1 / me_range=32 / chroma_me=1 / trellis=1 / 8x8dct=1 / cqm=0 / deadzone=21,11 / fast_pskip=0 / chroma_qp_offset=-2 / threads=6 / lookahead_threads=1 / sliced_threads=0 / nr=0 / decimate=0 / interlaced=0 / bluray_compat=0 / constrained_intra=0 / bframes=6 / b_pyramid=2 / b_adapt=2 / b_bias=0 / direct=1 / weightb=1 / open_gop=0 / weightp=2 / keyint=240 / keyint_min=24 / scenecut=40 / intra_refresh=0 / rc=2pass / mbtree=0 / bitrate=4924 / ratetol=1.0 / qcomp=0.60 / qpmin=10 / qpmax=51 / qpstep=4 / cplxblur=20.0 / qblur=0.5 / ip_ratio=1.40 / pb_ratio=1.30 / aq=1:1.00
Default : Yes
Forced : No

Audio #1
ID : 2
Format : AC-3
Format/Info : Audio Coding 3
Mode extension : CM (complete main)
Format settings, Endianness : Big
Codec ID : A_AC3
Duration : 1h 30mn
Bit rate mode : Constant
Bit rate : 448 Kbps
Channel(s) : 6 channels
Channel positions : Front: L C R, Side: L R, LFE
Sampling rate : 48.0 KHz
Bit depth : 16 bits
Compression mode : Lossy
Stream size : 290 MiB (7%)
Title : 5.1 @ 448 kbps [K1]
Language : Ukrainian
Default : Yes
Forced : No

Audio #2
ID : 3
Format :
Format/Info : Digital Theater Systems
Mode : 16
Format settings, Endianness : Big
Codec ID : A_DTS
Duration : 1h 30mn
Bit rate mode : Constant
Bit rate : 1 509 Kbps
Channel(s) : 6 channels
Channel positions : Front: L C R, Side: L R, LFE
Sampling rate : 48.0 KHz
Bit depth : 24 bits
Compression mode : Lossy
Stream size : 978 MiB (22%)
Title : 5.1 @ 1509 kbps
Language : English
Default : No
Forced : No

Text #1
ID : 4
Format : UTF-8
Codec ID : S_TEXT/UTF8
Codec ID/Info : UTF-8 Plain Text
Title : Full
Language : Ukrainian
Default : No
Forced : No

Text #2
ID : 5
Format : UTF-8
Codec ID : S_TEXT/UTF8
Codec ID/Info : UTF-8 Plain Text
Title : Full
Language : English
Default : No
Forced : No

Menu
00:00:00.000 : en:00:00:00.000
00:06:34.769 : en:00:06:34.769
00:13:36.274 : en:00:13:36.274
00:16:45.755 : en:00:16:45.755
00:20:24.223 : en:00:20:24.223
00:23:59.688 : en:00:23:59.688
00:26:36.553 : en:00:26:36.553
00:33:04.274 : en:00:33:04.274
00:39:17.397 : en:00:39:17.397
00:46:21.028 : en:00:46:21.028
00:53:41.468 : en:00:53:41.468
01:00:23.411 : en:01:00:23.411
01:05:40.937 : en:01:05:40.937
01:08:35.445 : en:01:08:35.445
01:13:03.212 : en:01:13:03.212
01:16:55.778 : en:01:16:55.778
Скріншоти:




 Трекер:    Зареєстрований   

Завантажити / скачати мультфільм українською



відео для новачків



 Зареєстрований:   2013-12-22 19:29
 Розмір:   4.36 GB 
 Оцінка мультфільму:   9.6/10 (Голосів: 14)
   
Інші релізи
simon 2 
Відео Гуртом - підтримка та поширення
Відео Гуртом - підтримка та поширення


З нами з: 27.03.11
Востаннє: 13.05.12
Повідомлень: 338

2011-06-25 07:48  
Як на мене все норм...Дякую за реліз можливо завантажу...
Stepan2009 
VIP


З нами з: 18.09.10
Востаннє: 20.08.17
Повідомлень: 327

2011-06-25 10:44  
цікавий мультик.
такий собі мультфільм жахів - прикольно, весело і дуже цікаво.
дякую за реліз.
супер.

gagaboy 
VIP


З нами з: 22.12.10
Востаннє: 20.08.17
Повідомлень: 349

2011-06-26 21:37  
давненько бачив, інтересний мульт =)))
Dees 
Новенький


З нами з: 03.02.10
Востаннє: 20.08.17
Повідомлень: 16

2011-06-26 21:48  
станьте на роздачу хоть на 20хв ) Wide grin
DejaVu 
Відео Гуртом - підтримка та поширення
Відео Гуртом - підтримка та поширення


З нами з: 20.12.10
Востаннє: 20.08.17
Повідомлень: 755

2011-06-27 13:39  
simon 2
Так, але э одне ще но - це 1080р-miniHappy. А так то все добре!Happy
igorgladunyak
Виправи будь ласка помилкуHappy

patriot2305 
Почесний гуртомівець


З нами з: 23.04.11
Востаннє: 21.12.16
Повідомлень: 4137

2013-12-22 20:42  
Забули про скріни
braveboy 
Відео Гуртом - команда HD
Відео Гуртом - команда HD


З нами з: 15.06.10
Востаннє: 13.08.17
Повідомлень: 949

2013-12-22 20:52  
patriot2305 написано:
Забули про скріни

о так я пізніше добавлю

Х-Хед 
VIP


З нами з: 06.05.12
Востаннє: 09.08.17
Повідомлень: 387

2014-02-08 21:05  
10 Жесть! Tongue up (1)
Ваш часовий пояс: GMT + 2 Години

Нова тема   Відповісти