Невідомий / Unknown (2011) 720p

Нові коментарі

Нова тема   Відповісти
Автор Повідомлення
Dim-ON 
VIP


З нами з: 03.06.10
Востаннє: 05.05.17
Повідомлень: 431

2011-06-22 17:52  
Невідомий / Unknown (2011) 720p


Жанр: драма, трилер
Країна: Канада, Франція, Німеччина, Японія, Великобританія, США



Кіностудія / кінокомпанія: Warner Bros. Pictures, Dark Castle Entertainment, Panda Productions Inc., Studio Babelsberg, Studio Canal
Режисер: Ям Серра (Jaume Collet-Serra)
Актори: Ліам Нісон (Liam Neeson), Даян Крюгер (Diane Kruger), Ейдан Куінн (Aidan Quinn), Дженьюері Джонс (January Jones), Френк Ланджелла (Frank Langella), Бруно Ганц (Bruno Ganz), Себастьян Кох (Sebastian Koch), Стіпе Ерчег (Stipe Erceg) та інші.

Сюжет:
Що може бути страшніше за втрату минулого і на що здатна людина заради свого майбутнього, коли сьогодення розсипається на очах? Історія розповідає про чоловіка, який після пробудження від тривалої коми виявляє, що його особа привласнена іншій людині. Розуміючи, що йому ніхто не вірить, навіть власна дружина, він прагне за будь-яку ціну повернути своє Я.


Тривалість: 01:53:11

Якість: 720p
Відео:
кодек:
розмір кадру: 1280x534
бітрейт: 6000 kbps

Аудіо # 1:
мова: українська
переклад: професійний дубльований
кодек: 5.1
бітрейт: 384 кб/с

Фільм дубльовано Postmodern на замовлення дистриб'ютора “Кіноманія”
Режисер дубляжу: Анна Пащенко
Переклад: Сергія Ковальчука
Звукорежисер: Олександр Мостовенко
Ролі дублювали: Ліам Нісон/Д-р Мартін Гарріс - Олександр Ігнатуша, Олена Яблучна, Андрій Самінін, Наталя Романько, Валерій Шептекіта, Анатолій Барчук, Андрій Мостренко та інші.
Info
Код:
Complete name                    : Unknown.2011..720p.Ukr.
Format                           :
File size                        : 5.05 GiB
Duration                         : 1h 53mn

Video
ID                               : 1
Format                           : AVC
Format/Info                      : Advanced Video Codec
Format profile                   : [email protected]
Format settings, CABAC           : Yes
Format settings, ReFrames        : 11 frames
Codec ID                         : V_MPEG4/ISO/AVC
Duration                         : 1h 53mn
Bit rate                         : 6 000 Kbps
Width                            : 1 280 pixels
Height                           : 534 pixels
Display aspect ratio             : 2.35:1
Frame rate                       : 23.976 fps
Color space                      : YUV
Chroma subsampling               : 4:2:0
Bit depth                        : 8 bits
Scan type                        : Progressive
Bits/(Pixel*Frame)               : 0.366
Stream size                      : 4.61 GiB
Writing library                  : core 115 r1995 c1e60b9
Encoding settings                : cabac=1 / ref=11 / deblock=1:-3:-3 / analyse=0x3:0x113 / me=tesa / subme=10 / psy=1 / psy_rd=0.95:0.00 / mixed_ref=1 / me_range=16 / chroma_me=1 / trellis=2 / 8x8dct=1 / cqm=0 / deadzone=21,11 / fast_pskip=0 / chroma_qp_offset=-2 / threads=12 / sliced_threads=0 / nr=0 / decimate=0 / interlaced=0 / bluray_compat=0 / constrained_intra=0 / bframes=7 / b_pyramid=2 / b_adapt=2 / b_bias=0 / direct=3 / weightb=1 / open_gop=0 / weightp=2 / keyint=250 / keyint_min=23 / scenecut=40 / intra_refresh=0 / rc=2pass / mbtree=0 / bitrate=6000 / ratetol=1.0 / qcomp=0.65 / qpmin=0 / qpmax=69 / qpstep=4 / cplxblur=20.0 / qblur=0.5 / ip_ratio=1.40 / pb_ratio=1.30 / aq=1:0.70
Language                         : English

Audio #1
ID                               : 3
Format                           : AC-3
Format/Info                      : Audio Coding 3
Mode extension                   : CM (complete main)
Codec ID                         : A_AC3
Duration                         : 1h 53mn
Bit rate mode                    : Constant
Bit rate                         : 384 Kbps
Channel(s)                       : 6 channels
Channel positions                : Front: L C R, Side: L R, LFE
Sampling rate                    : 48.0 KHz
Bit depth                        : 16 bits
Compression mode                 : Lossy
Stream size                      : 311 MiB
Title                            : Dub
Language                         : Ukrainian
Світлини:





Джерело: &
Подяка antik_2008 за українську звукову доріжку
Особиста оцінка: 0 - ще не встиг переглянути

Усі релізи даної художньої стрічки:


 Трекер:    Зареєстрований   

Завантажити / скачати фільм українською



відео для новачків



 Зареєстрований:   2011-06-22 17:52
 Розмір:   5.05 GB 
 Оцінка фільму:   9.8/10 (Голосів: 13)
   
Інші релізи
   Невідомий / Unknown (2011) 2xUkr/Eng patriot2305  4 / 0   2.19 GB   2015-11-29 10:49 
   Невідомий / Unknown (2011) 1080p Ukr/Eng | Sub Eng leroykendall  2 / 0   10.19 GB   2012-02-06 23:55 
   Невідомий / Unknown (2011) 720p-mini DejaVu  0 / 0   2.28 GB   2011-06-22 17:45 
   Невідомий / Unknown (2011) Ukr/Eng antik_2008  6 / 0   1.99 GB   2011-06-22 11:11 
Віктор 
Відео Гуртом - субтитрування
Відео Гуртом - субтитрування


З нами з: 09.01.10
Востаннє: 27.09.17
Повідомлень: 8683

2011-06-26 09:15  

Фільм дубльовано Postmodern на замовлення дистриб'ютора “Кіноманія”
Режисер дубляжу: Анна Пащенко
Переклад: Сергія Ковальчука
Звукорежисер: Олександр Мостовенко
Ролі дублювали: Ліам Нісон/Д-р Мартін Гарріс - Олександр Ігнатуша, Олена Яблучна, Андрій Самінін, Наталя Романько, Валерій Шептекіта, Анатолій Барчук, Андрій Мостренко та інші.

Dim-ON 
VIP


З нами з: 03.06.10
Востаннє: 05.05.17
Повідомлень: 431

2011-06-26 11:03  
w2958l, красна дяка. Додав.
Віктор 
Відео Гуртом - субтитрування
Відео Гуртом - субтитрування


З нами з: 09.01.10
Востаннє: 27.09.17
Повідомлень: 8683

2011-06-26 11:10  
Dim-ON, це вам дякую, що дописали. Ще й лінк на Олександра Ігнатушу додали.
Virake 
Localize Team
Localize Team


З нами з: 07.07.09
Востаннє: 19.10.17
Повідомлень: 4609

2012-12-20 23:45  
просто неймовірний фільм! хвалити хочеться абсолютно все, починаючи від неймовірних зйомок снігопаду й закінчуючи неперевершими сюжетом та акторською грою. єдиний недолік - під час особливо швидких екшн-сцен (наприклад, погоні в лікарні) кадр трясеться, через що псується враження. все решта - на висоті! включно з чудовим дубляжем (навіть не сподівався, що буде такий хороший). загалом, фільм нагадує "Гру" (The Game, 1997) та трішки "Згадати все" (Total Recall, саме рімейк 2012-го).

загальна оцінка: 10 з 10!

Ваш часовий пояс: GMT + 2 Години

Нова тема   Відповісти