Ріо / Rio (2011) [iPod Touch,480x200]

Нові коментарі

Нова тема   Відповісти
Останній раз роздавалося female (2021-01-17)
Автор Повідомлення
Бузьок 
програми
програми


З нами з: 18.10.09
Востаннє: 05.12.20
Повідомлень: 1002

2011-06-11 20:31  
Ріо / Rio (2011) [iPod Touch,480x200]

Жанр: анімація, пригодницький, комедія
Країна: США


Режисер: Карлос Салдана
Ролі дублювали: Еріка, Фагот, Фоззі та інші
Красивий і дуже недалекий папуга, який народився в неволі у невеликому містечку штату Міннесота, вилітає в пошуках пригод, на батьківщину предків, в Ріо-де-Жанейро.
Тривалість: 01:31:57
Якість:
Відео:
кодек:
розмір кадру: 480 х 200
бітрейт: 317 кб/с

Аудіо:
мова: українська
переклад: професійний дубльований
кодек: 2.0
бітрейт: 128 кб/с
Info:
Код:
General
Complete name                    : D:\Films\Rio (2011) [iPod Touch,480x200].[Hurtom] by Buzyok.mp4
Format                           : MPEG-4
Format profile                   : Base Media
Codec ID                         : isom
File size                        : 283 MiB
Duration                         : 1h 31mn
Overall bit rate                 : 430 Kbps
Movie name                       : Rio
Performer                        : Карлос Салдана
Genre                            : Adventure, Animation, Comedy, Family, Musicals
Encoded date                     : 2011
Tagged date                      : UTC 2011-06-11 18:28:26
Cover                            : Yes
iTunEXTC                         : mpaa|G|100|
iTunMOVI                         : <?xml version="1.0" encoding="UTF-8"?> / <!DOCTYPE plist PUBLIC "-//Apple//DTD PLIST 1.0//EN" "http://www.apple.com/DTDs/PropertyList-1.0.dtd"> / <plist version="1.0"> / <dict> /   <key>directors</key> /   <array> /     <dict> /       <key>name</key> /       <string>Карлос Салдана</string> /     </dict> /   </array> /   <key>producers</key> /   <array> /     <dict> /       <key>name</key> /       <string>Кріс Дженкінс</string> /     </dict> /     <dict> /       <key>name</key> /       <string>Брюс Андерсон</string> /     </dict> /   </array> / </dict> / </plist>
soar                             : Carlos Saldanha
desc                             : Красивий і дуже недалекий папуга, який народився в неволі у невеликому містечку штату Міннесота, вилітає в пошуках пригод, на батьківщину предків, в Ріо-де-Жанейро.
stik                             : 9

Video
ID                               : 1
Format                           : AVC
Format/Info                      : Advanced Video Codec
Format profile                   : [email protected]
Format settings, CABAC           : No
Format settings, ReFrames        : 6 frames
Codec ID                         : avc1
Codec ID/Info                    : Advanced Video Coding
Duration                         : 1h 31mn
Bit rate mode                    : Variable
Bit rate                         : 317 Kbps
Width                            : 480 pixels
Height                           : 200 pixels
Display aspect ratio             : 2.40:1
Original display aspect ratio    : 2.40:1
Frame rate mode                  : Constant
Frame rate                       : 25.000 fps
Color space                      : YUV
Chroma subsampling               : 4:2:0
Bit depth                        : 8 bits
Scan type                        : Progressive
Bits/(Pixel*Frame)               : 0.132
Stream size                      : 207 MiB (73%)
Writing library                  : core 115 r1995M c1e60b9
Encoding settings                : cabac=0 / ref=6 / deblock=1:1:1 / analyse=0x1:0x131 / me=tesa / subme=10 / psy=1 / psy_rd=0.40:0.15 / mixed_ref=1 / me_range=16 / chroma_me=1 / trellis=2 / 8x8dct=0 / cqm=0 / deadzone=21,11 / fast_pskip=1 / chroma_qp_offset=-3 / threads=6 / sliced_threads=0 / nr=0 / decimate=1 / interlaced=0 / bluray_compat=0 / constrained_intra=0 / bframes=0 / weightp=0 / keyint=250 / keyint_min=25 / scenecut=40 / intra_refresh=0 / rc_lookahead=40 / rc=abr / mbtree=1 / bitrate=317 / ratetol=1.0 / qcomp=0.60 / qpmin=10 / qpmax=51 / qpstep=4 / vbv_maxrate=2500 / vbv_bufsize=2000 / nal_hrd=none / ip_ratio=1.40 / aq=1:0.60

Audio
ID                               : 2
Format                           :
Format/Info                      : Advanced Audio Codec
Format version                   : Version 4
Format profile                   : LC
Format settings, SBR             : No
Codec ID                         : 40
Duration                         : 1h 31mn
Bit rate mode                    : Variable
Bit rate                         : 109 Kbps
Maximum bit rate                 : 135 Kbps
Channel(s)                       : 2 channels
Channel positions                : Front: L R
Sampling rate                    : 48.0 KHz
Stream size                      : 71.6 MiB (25%)
Language                         : Ukrainian
iTunes:
Скріншоти:






Джерело:
Особиста оцінка: 10 - без зайвих вагань рекомендую всім!


 Трекер:    Зареєстрований   

Завантажити / скачати торрент



відео для новачків



 Зареєстрований:   2011-06-11 20:31
 Розмір:   283 MB 
 Оцінка:   8.6/10 (Голосів: 21)
   
Інші релізи
   Ріо / Rio (2011) AVC 3xUkr/Eng | Sub Ukr/Eng Gingеrbread  7 / 0   2.53 GB   2020-07-18 13:25 
   Ріо / Rio (2011) 1080р H.265 2xUkr/Eng | Sub Ukr/Eng -Star-Lord-  4 / 0   5.08 GB   2020-02-24 02:57 
   Ріо / Rio (2011) 1080р Ukr/Eng | Sub Eng kvvdvd  11 / 0   7.33 GB   2016-11-22 02:03 
   Ріо / Rio (2011) 720p Ukr/Eng | Sub Ukr/Eng (60fps) Drool  1 / 0   7.86 GB   2014-07-08 07:56 
   Ріо / Rio (2011) 720p Ukr/Eng | Sub Ukr/Eng Dim-ON  4 / 0   4.33 GB   2011-12-04 23:49 
   Ріо / Rio (2011) FaB0SS  2 / 0   745 MB   2011-08-11 19:15 
   Ріо / Rio (2011) 720p-mini Drool  1 / 0   1.39 GB   2011-07-10 10:05 
petrok13 
Відео Гуртом - підтримка та поширення
Відео Гуртом - підтримка та поширення


З нами з: 29.11.08
Востаннє: 08.01.21
Повідомлень: 173

2011-06-11 23:50  
Бузьок
Дуже дякую. Чудово відтворюється на телефоні, хоч і не Айфон. Побільше б таких релізів.

stepan-himka 
Свій


З нами з: 24.03.10
Востаннє: 27.12.20
Повідомлень: 142

2011-06-15 20:32  
Дуже дякую! Тре створити розділ для таких фільмів, маю наувазі для мобілок.
Тепер небуду нудьгувати у маршрутці.

Prokop94 
Свій


З нами з: 08.03.11
Востаннє: 16.10.20
Повідомлень: 120

2011-08-19 11:08  
stepan-himka написано:
Тре створити розділ для таких фільмів, маю наувазі для мобілок.

+1. Сьогодні айподи/айфони завойовують ринок, тому потрібно побільше таких фільмів.
А на Гуртомі існує окремий розділ з фільмами для айпод/айфон?

Ваш часовий пояс: GMT + 2 Години

Нова тема   Відповісти