Сурикати / The Meerkats (2008) 720p Ukr/Eng

Нові коментарі

Нова тема   Відповісти
Автор Повідомлення
Anonymous 







2011-06-04 23:22  
Сурикати / The Meerkats (2008) 720p Ukr/Eng



Жанр: документальний
Країна: Велика Британія



Кіностудія / кінокомпанія: BBC Films, BBC Natural History, The Weinstein Company
Режисер: Джеймс Гоніборн (James Honeyborne)
Композитор: Сара Класс (Sarah Class)
Текст читає: Пол Ньюмен (Paul Newman)

Сюжет:
На казково гарній землі, де правила диктують найсильніші, маленькі створіння збудували свої домівки. Для одного з молодих сурикатів пригоди тільки починаються. Він навчиться захищатися і зрозуміє, що велика сила – у згуртованості та взаємодопомозі.
Info

Код:

General
Unique ID                        : 254430220233190840982413848711722088574 (0xBF697A5D946C89219E095164298AB87E)
Complete name                    : D:\ 720p\The Meerkats (2008) [Ukr, Eng] 720p [Hurtom].
Format                           :
File size                        : 4.73 GiB
Duration                         : 1h 23mn
Overall bit rate                 : 8 145 Kbps
Movie name                       : The Meerkats (2008)
Encoded date                     : UTC 2011-06-05 10:45:11
Writing application              : mkvmerge v4.7.0 ('Just Like You Imagined') зібрано Apr 21 2011 01:13:14
Writing library                  : libebml v1.2.0 + libmatroska v1.1.0

Video
ID                               : 1
Format                           : AVC
Format/Info                      : Advanced Video Codec
Format profile                   : [email protected]
Format settings, CABAC           : Yes
Format settings, ReFrames        : 10 frames
Muxing mode                      : Header stripping
Codec ID                         : V_MPEG4/ISO/AVC
Duration                         : 1h 23mn
Bit rate                         : 5 999 Kbps
Width                            : 1 280 pixels
Height                           : 544 pixels
Display aspect ratio             : 2.35:1
Frame rate                       : 23.976 fps
Color space                      : YUV
Chroma subsampling               : 4:2:0
Bit depth                        : 8 bits
Scan type                        : Progressive
Bits/(Pixel*Frame)               : 0.359
Stream size                      : 3.39 GiB (72%)
Title                            : Hurtom
Writing library                  : core 67 r1148M 400740b
Encoding settings                : cabac=1 / ref=10 / deblock=1:-3:-3 / analyse=0x3:0x133 / me=umh / subme=9 / psy_rd=0.9:0.8 / mixed_ref=1 / me_range=16 / chroma_me=1 / trellis=2 / 8x8dct=1 / cqm=0 / deadzone=21,11 / chroma_qp_offset=-4 / threads=6 / nr=0 / decimate=1 / mbaff=0 / bframes=5 / b_pyramid=1 / b_adapt=2 / b_bias=0 / direct=1 / wpredb=1 / keyint=250 / keyint_min=25 / scenecut=40 / rc=2pass / bitrate=5999 / ratetol=1.0 / qcomp=0.60 / qpmin=10 / qpmax=34 / qpstep=4 / cplxblur=20.0 / qblur=0.5 / ip_ratio=1.40 / pb_ratio=1.30 / aq=1:0.70
Language                         : English

Audio #1
ID                               : 2
Format                           : AC-3
Format/Info                      : Audio Coding 3
Mode extension                   : CM (complete main)
Muxing mode                      : Header stripping
Codec ID                         : A_AC3
Duration                         : 1h 23mn
Bit rate mode                    : Constant
Bit rate                         : 448 Kbps
Channel(s)                       : 6 channels
Channel positions                : Front: L C R, Side: L R, LFE
Sampling rate                    : 48.0 KHz
Bit depth                        : 16 bits
Compression mode                 : Lossy
Stream size                      : 267 MiB (6%)
Title                            : 5.1 @ 448 kbps [AVO] Михайло Жонін | Запис з 1+1 | Зведення звуку MutuLI
Language                         : Ukrainian

Audio #2
ID                               : 3
Format                           : AC-3
Format/Info                      : Audio Coding 3
Mode extension                   : CM (complete main)
Muxing mode                      : Header stripping
Codec ID                         : A_AC3
Duration                         : 1h 23mn
Bit rate mode                    : Constant
Bit rate                         : 192 Kbps
Channel(s)                       : 2 channels
Channel positions                : Front: L R
Sampling rate                    : 48.0 KHz
Bit depth                        : 16 bits
Compression mode                 : Lossy
Stream size                      : 114 MiB (2%)
Title                            : 2.0 @ 192 kbps [AVO] Михайло Жонін | Запис з 1+1 | Зведення звуку MutuLI
Language                         : Ukrainian

Audio #3
ID                               : 4
Format                           :
Format/Info                      : Digital Theater Systems
Muxing mode                      : Header stripping
Codec ID                         : A_DTS
Duration                         : 1h 23mn
Bit rate mode                    : Constant
Bit rate                         : 1 510 Kbps
Channel(s)                       : 6 channels
Channel positions                : Front: L C R, Side: L R, LFE
Sampling rate                    : 48.0 KHz
Bit depth                        : 24 bits
Compression mode                 : Lossy
Stream size                      : 898 MiB (19%)
Language                         : English

Тривалість: 01:23:11
Якість: 720р (ріп від: ESiR)
Відео:
кодек:
розмір кадру: 1280 х 544
бітрейт: 6001 кб/с

Аудіо # 1:
мова: українська
переклад: одноголосий закадровий Михайло Жонін (Запис з телеканалу 1+1)
кодек: 5.1
бітрейт: 448 кб/с

Аудіо # 2:
мова: українська
переклад: одноголосий закадровий Михайло Жонін (Запис з телеканалу 1+1)
кодек: 2.0
бітрейт: 192 кб/с

Аудіо # 3:
мова: англійська
переклад: оригінал
кодек: 5.1
бітрейт: 1536 кб/с

Скріншоти:




За запис української доріжки подяка xslim-y
За зведення українських доріжок 5.1 і 2.0 подяка Mutuli
За українізацію обкладинки подяка pan_oleg-y
Окрема подяка yuraflash


Також на Толоці: Сурикати / The Meerkats (2008) Ukr/Eng

Джерело:
Особиста оцінка: 10 - без зайвих вагань рекомендую всім!


 Трекер:    Зареєстрований   

Завантажити / скачати фільм українською



відео для новачків



 Зареєстрований:   2011-06-05 14:14
 Розмір:   4.73 GB 
 Оцінка фільму:   9.4/10 (Голосів: 14)
   
MutuLI 
Відео Гуртом - фільмокрай
Відео Гуртом - фільмокрай


З нами з: 08.03.09
Востаннє: 21.10.17
Повідомлень: 1306

2011-06-04 23:56  
Кусочок з українською озвучкою, кому цікаво...


Anonymous 







2011-06-05 00:03  
Знайомий голос озвучує, може хтось знає, хто це?
MutuLI 
Відео Гуртом - фільмокрай
Відео Гуртом - фільмокрай


З нами з: 08.03.09
Востаннє: 21.10.17
Повідомлень: 1306

2011-06-05 00:09  
w2958l написано:
Знайомий голос озвучує, може хтось знає, хто це?

Хто озвучує не знаю, але мушу сказати, що студія 1+1 класно озвучує документальні фільми, і переклад тексту дуже вдалий

bot 
робот


З нами з: 30.09.07
Востаннє: 26.05.05
Повідомлень: 17723

2011-06-05 14:13  
maksym1990 
Відео Гуртом - фільмокрай
Відео Гуртом - фільмокрай


З нами з: 04.04.08
Востаннє: 20.10.17
Повідомлень: 247

2011-06-05 21:52  
Чудовий фільм.
migelius 
Свій


З нами з: 29.02.08
Востаннє: 20.10.17
Повідомлень: 100

2011-06-06 03:08  
переглянув семпл - думаю має бути цікаве кіно
gaidamak_2009 
Новенький


З нами з: 09.02.12
Востаннє: 27.01.16
Повідомлень: 2

2012-09-22 14:29  
w2958l
Обов'язково не подивлюся :-)

Ваш часовий пояс: GMT + 2 Години

Нова тема   Відповісти