Суперсімейка / The Incredibles (2004) 1080p-mini

Нові коментарі

Нова тема   Відповісти
Автор Повідомлення
Zeus62 
Відео Гуртом - команда HD
Відео Гуртом - команда HD


З нами з: 29.12.08
Востаннє: 09.07.17
Повідомлень: 330

2011-04-12 14:14  

Суперсімейка / The Incredibles (2004) 1080p-mini



Жанр: анімація, комедія, сімейний, фантастика
Країна: США



Кіностудія / кінокомпанія: Pixar Animation Studios, Walt Disney Pictures
Режисер: Бред Берд
Актори: Холлі Хантер, Семюел Л. Джексон, Джейсон Лі та ін.

Сюжет:
Захоплюючий мультфільм про сімейку суперменів, що живе собі неподалік від великого міста і суперможливості членів котрої стали набагато слабшими, ніж вони були колись. Зовсім недавно вони були змушені звернутися в Програму по захисту свідків щоб заховатися від одного особливо надоїдливого монстра. Але незважаючи на всі їх старання виглядати як звичайні люди, вони знову опиняються втягнутими в місію по спасінню Землі.


Тривалість: 01:55:25
Якість:
Відео:
кодек:
розмір кадру: 1920 х 802
бітрейт: 4966 кб/с

Аудіо:
мова: українська
переклад: професійний дубльований
кодек: 5.1
бітрейт: 448 кб/с
Info:
Format :
File size : 4.36 GiB
Duration : 1h 55mn
Overall bit rate : 5 412 Kbps
Encoded date : UTC 2011-04-12 11:04:37
Writing application : mkvmerge v4.0.0 ('The Stars were mine') built on Jun 18 2010 07:35:17
Writing library : libebml v1.0.0 + libmatroska v1.0.0

Video
ID : 1
Format : AVC
Format/Info : Advanced Video Codec
Format profile : [email protected]
Format settings, CABAC : Yes
Format settings, ReFrames : 4 frames
Format settings, GOP : M=3, N=48
Codec ID : V_MPEG4/ISO/AVC
Duration : 1h 55mn
Bit rate : 4 966 Kbps
Width : 1 920 pixels
Height : 802 pixels
Display aspect ratio : 2.35:1
Frame rate mode : Variable
Frame rate : 23.976 fps
Color space : YUV
Chroma subsampling : 4:2:0
Bit depth : 8 bits
Scan type : Progressive
Bits/(Pixel*Frame) : 0.135
Stream size : 3.92 GiB (90%)
Writing library : core 114
Encoding settings : cabac=1 / ref=2 / deblock=1:0:0 / analyse=0x1:0x111 / me=hex / subme=6 / psy=1 / psy_rd=1,00:0,00 / mixed_ref=0 / me_range=16 / chroma_me=1 / trellis=0 / 8x8dct=0 / cqm=0 / deadzone=21,11 / fast_pskip=1 / chroma_qp_offset=-2 / threads=3 / sliced_threads=0 / nr=0 / decimate=1 / interlaced=0 / constrained_intra=0 / bframes=2 / b_pyramid=2 / b_adapt=1 / b_bias=0 / direct=1 / weightb=0 / open_gop=0 / weightp=2 / keyint=240 / keyint_min=23 / scenecut=40 / intra_refresh=0 / rc_lookahead=40 / rc=2pass / mbtree=1 / bitrate=4966 / ratetol=1,0 / qcomp=0,60 / qpmin=3 / qpmax=69 / qpstep=4 / cplxblur=20,0 / qblur=0,5 / ip_ratio=1,40 / aq=1:1,00
Language : English
Color primaries : BT.709-5, BT.1361, IEC 61966-2-4, SMPTE RP177
Transfer characteristics : BT.709-5, BT.1361
Matrix coefficients : BT.709-5, BT.1361, IEC 61966-2-4 709, SMPTE RP177

Audio
ID : 2
Format : AC-3
Format/Info : Audio Coding 3
Mode extension : CM (complete main)
Codec ID : A_AC3
Duration : 1h 55mn
Bit rate mode : Constant
Bit rate : 448 Kbps
Channel(s) : 6 channels
Channel positions : Front: L C R, Side: L R, LFE
Sampling rate : 48.0 KHz
Bit depth : 16 bits
Compression mode : Lossy
Delay relative to video : 4ms
Stream size : 370 MiB (8%)
Title : 1+1 by Zeus62
Language : Ukrainian
Скріншоти:



Джерело: Власний ріп +
Доріжка перероблена мною в 5.1
Особиста оцінка: 10 - без зайвих вагань рекомендую всім!


Срібний реліз (на рейтинг впливає 50% завантаженого)
 Трекер:    Зареєстрований   

Завантажити / скачати мультфільм українською



відео для новачків



 Зареєстрований:   2011-04-12 14:14
 Розмір:   4.36 GB 
 Оцінка мультфільму:   9.6/10 (Голосів: 19)
   
Інші релізи
Зореліт 
VIP


З нами з: 18.09.10
Востаннє: 03.06.17
Повідомлень: 317

2011-04-12 20:56  
Ідеальний розмір) Ще й скріни на диск закину Wink (1)
Olikaz 
Новенький


З нами з: 08.05.11
Востаннє: 18.08.17
Повідомлень: 2

2011-05-17 09:15  
Станьте, будь ласка, на роздачу.
makapoh 
Новенький


З нами з: 23.12.11
Востаннє: 18.08.17
Повідомлень: 22

2012-11-07 15:59  
Окрема подяка за 5.1.
Zeus62 
Відео Гуртом - команда HD
Відео Гуртом - команда HD


З нами з: 29.12.08
Востаннє: 09.07.17
Повідомлень: 330

2012-11-13 02:33  
Цитата:
Окрема подяка за 5.1.

Будь ласка)

Ваш часовий пояс: GMT + 2 Години

Нова тема   Відповісти