Корпорація монстрів / Monsters, Inc. (2001) 1080p-mini

Нові коментарі

Нова тема   Відповісти
Автор Повідомлення
Zeus62 
Відео Гуртом - команда HD
Відео Гуртом - команда HD


З нами з: 29.12.08
Востаннє: 09.07.17
Повідомлень: 330

2011-04-07 11:07  
Корпорація монстрів / Monsters, Inc. (2001) 1080p-mini



Жанр: анімація, комедія, сімейний, фантастика
Країна: США



Кіностудія / кінокомпанія: Walt Disney Pictures / Pixar Animation Studios
Режисер: Пітер Доктер
Актори: Пітер Доктер, Лі Анкріч, Девід Сілверман

Сюжет:
Вони монстри, проте не такі вже й страшні, а деякі навіть милі. Живуть вони в паралельному до нашого світу місті Монстрополісі. Їхня робота – лякати дітей, адже саме дитячі крики виробляють енергію, потрібну для життєдіяльності міста.
Звісно, контакти з дітьми суворо заборонені, але найкращий з монстрів Саллі порушує рівновагу – він зустрічає гарну маленьку дівчинку...


Тривалість: 01:32:15
Якість:
Відео:
кодек:
розмір кадру: 1920 х 1038
бітрейт: 6663 кб/с

Аудіо:
мова: українська
переклад: професійний дубльований
кодек: 2.0
бітрейт: 192 кб/с
Скріншоти:

Info:
Format :
File size : 4.29 GiB
Duration : 1h 32mn
Overall bit rate : 6 663 Kbps
Writing application : HandBrake svn3797
Writing library : libmkv 0.6.4.1

Video
ID : 1
Format : AVC
Format/Info : Advanced Video Codec
Format profile : [email protected]
Format settings, CABAC : Yes
Format settings, ReFrames : 4 frames
Codec ID : V_MPEG4/ISO/AVC
Duration : 1h 32mn
Bit rate : 6 471 Kbps
Width : 1 920 pixels
Height : 1 038 pixels
Display aspect ratio : 1.850
Frame rate mode : Variable
Frame rate : 23.976 fps
Color space : YUV
Chroma subsampling : 4:2:0
Bit depth : 8 bits
Scan type : Progressive
Bits/(Pixel*Frame) : 0.135
Stream size : 4.09 GiB (95%)
Writing library : core 114
Encoding settings : cabac=1 / ref=2 / deblock=1:0:0 / analyse=0x1:0x111 / me=hex / subme=6 / psy=1 / psy_rd=1,00:0,00 / mixed_ref=0 / me_range=16 / chroma_me=1 / trellis=0 / 8x8dct=0 / cqm=0 / deadzone=21,11 / fast_pskip=1 / chroma_qp_offset=-2 / threads=3 / sliced_threads=0 / nr=0 / decimate=1 / interlaced=0 / constrained_intra=0 / bframes=2 / b_pyramid=2 / b_adapt=1 / b_bias=0 / direct=1 / weightb=0 / open_gop=0 / weightp=2 / keyint=240 / keyint_min=23 / scenecut=40 / intra_refresh=0 / rc_lookahead=40 / rc=2pass / mbtree=1 / bitrate=6471 / ratetol=1,0 / qcomp=0,60 / qpmin=3 / qpmax=69 / qpstep=4 / cplxblur=20,0 / qblur=0,5 / ip_ratio=1,40 / aq=1:1,00
Language : English
Color primaries : BT.709-5, BT.1361, IEC 61966-2-4, SMPTE RP177
Transfer characteristics : BT.709-5, BT.1361
Matrix coefficients : BT.709-5, BT.1361, IEC 61966-2-4 709, SMPTE RP177

Audio
ID : 2
Format : AC-3
Format/Info : Audio Coding 3
Mode extension : CM (complete main)
Codec ID : A_AC3
Duration : 1h 32mn
Bit rate mode : Constant
Bit rate : 192 Kbps
Channel(s) : 2 channels
Channel positions : Front: L R
Sampling rate : 48.0 KHz
Bit depth : 16 bits
Compression mode : Lossy
Stream size : 127 MiB (3%)
Language : Ukrainian
Джерело: Власний ріп +
Особиста оцінка: 10 - без зайвих вагань рекомендую всім!


Срібний реліз (на рейтинг впливає 50% завантаженого)
 Трекер:    Зареєстрований   

Завантажити / скачати мультфільм українською



відео для новачків



 Зареєстрований:   2011-04-07 11:07
 Розмір:   4.29 GB 
 Оцінка мультфільму:   9.7/10 (Голосів: 26)
   
Virake 
Localize Team
Localize Team


З нами з: 07.07.09
Востаннє: 15.08.17
Повідомлень: 4452

2011-04-07 11:41  
а я й не знав, що цей мульт дублювали.
knowgod 
Новенький


З нами з: 05.12.09
Востаннє: 11.08.17
Повідомлень: 12

2011-05-19 20:55  
Та це ж класика! Я теж не знав чи є український дубляж. Дуже хочу почути. Особливо це: "I'll be watching you Vazovsky".
От тільки клієнт мій завантажує від 0 з 0 підключених вузлів. Хтось роздає насправді?

miroVIDEO 
Частий відвідувач


З нами з: 02.10.09
Востаннє: 21.08.17
Повідомлень: 30

2011-05-20 06:31  
я роздаю
з ранку до вечора по національному часу Wide grin

Віктор 
Відео Гуртом - субтитрування
Відео Гуртом - субтитрування


З нами з: 09.01.10
Востаннє: 11.08.17
Повідомлень: 8686

2011-12-19 16:41  
Скріншоти.
a014789 
Новенький


З нами з: 21.11.09
Востаннє: 20.08.17
Повідомлень: 20

2012-01-29 20:22  
Супер класний мультик! Дуже цікавий та кумедний!
fun7 
Новенький


З нами з: 07.01.09
Востаннє: 20.08.17
Повідомлень: 15

2012-05-14 23:11  
В кінці кумедні епізоди і мюзікл Майка є???
UnitedWallabies 
Частий відвідувач


З нами з: 16.12.12
Востаннє: 01.07.17
Повідомлень: 29

2013-01-08 08:46  
1080p це чудово, але б хотілося ще й оригінальну (англійську) мову теж мати як варіант, щоб можна було перемкнути під час перегляду.
leroykendall 
Модератор HD


З нами з: 03.01.11
Востаннє: 20.08.17
Повідомлень: 750

2013-01-09 03:54  
UnitedWallabies
Як варінт можу порадити 720p https://toloka.to/t22119
Бітрейт відео майже той самий.

jonnyzero 
Свій


З нами з: 04.01.09
Востаннє: 21.08.17
Повідомлень: 51

2015-04-29 22:32  
Дайте хтось гарного потоку и хорошої роздачі. Дякую
Wysnewetskyj 
Частий відвідувач


З нами з: 30.05.16
Востаннє: 19.08.17
Повідомлень: 37

2017-07-05 20:29  
Чудовий мультфільм про дружбу та відданість. В ньому показано, що щирі друзі можуть піти на зустріч одне одному навіть якщо від початку не поділяли спільної мети.
Навіть фінал пробиває на ніжне почуття радості після сумної нотки.

Особиста оцінка: 9/10

Ваш часовий пояс: GMT + 2 Години

Нова тема   Відповісти