VA - Сучасна інтерпретація традиційної української музики (4 альбоми) (2005-2006) [FLAC] | Folk / Electronic

Нові коментарі

Нова тема   Відповісти
Автор Повідомлення
civ 
VIP


З нами з: 16.02.11
Востаннє: 21.08.17
Повідомлень: 453

2011-03-04 22:28  
VA - Сучасна інтерпретація традиційної української музики (4 альбоми) (2005-2006) [FLAC] | Folk / Electronic


Стиль: Folk, Electronic
Країна, місто: Україна, Київ
Видавець: Атлантік

Альбоми:
Коралі (2005)



Назва: Коралі
Рік: 2005
Виконавці:
Сергій Гера — автор композицій та продюсер альбому, аранжування, програмування та редакція.
Олександр Барановський — гітари.
Запис пісень непрофесійних виконавців здійснено під час народних свят.
Записано та зведено на Molotov 20 Studio.

Пісні:
01. Поцухи
02. Ой, чумаче, чумаче
03. Ой, лихо — не біда
04. Іване й Василь
05. Весняночко, паняночко
06. Колискова
07. Вилети, гулю, вилети
08. Ой, піду я в полонину
09. Перун
10. Же коза стоїть

Тривалість: 00:48:41
Мова: українська
Аудіо-кодек: FLAC
Бітрейт: 967 кб/с

Додаткова інформація:
Не знаю, чи для Вас стане цей диск несподіванкою, але точно знаю, що для мене він – частина того руху, на який я вже давно чекаю. Маю на увазі, що, як людина міська і абсолютно пересічна, я не можу слухати, наприклад, автентичний спів годинами. Тільки так, потроху. А хочеться більше, бо – цікаво. Але не вистачає терпіння, бо потребую не тільки голосових мелодій, а й ритмів більш-менш складних, і якихось додаткових мелодійних ліній. Хочеться органічного переплетіння старого і нового, осмисленої еклектики, універсальності. Щоб музична мова могла бути зрозумілою незалежно від того, у яких соціальних та естетичних стереотипах виховувалась людина. Звісно, можна сказати, що мова музики і так є універсальною, зрозумілою для кожного. Так. Але, коли йдеться про коріння, про інтерпретації чогось давнього сучасними засобами – хочеться, щоб не було в цьому примітивності, вульгарності. І тому добре, що з’являються проекти на зразок ось цього. Бо це – пошук, рух. Інколи більш вдалий, інколи – не дуже. Але – пошук відбувається. Спостерігаймо.

Антон Йожик Лейба
EAC log

Exact Audio Copy V1.0 beta 1 from 15. November 2010

EAC extraction logfile from 4. March 2011, 8:46

Сучасна інтерпретація традиційної української музики / Коралі

Used drive : Optiarc DVD RW AD-7200A Adapter: 0 ID: 0

Read mode : Secure
Utilize accurate stream : Yes
Defeat audio cache : Yes
Make use of C2 pointers : No

Read offset correction : 0
Overread into Lead-In and Lead-Out : No
Fill up missing offset samples with silence : Yes
Delete leading and trailing silent blocks : No
Null samples used in CRC calculations : No
Used interface : Native Win32 interface for Win NT & 2000

Used output format : Internal WAV Routines
Sample format : 44.100 Hz; 16 Bit; Stereo

TOC of the extracted CD

Track | Start | Length | Start sector | End sector
---------------------------------------------------------
1 | 0:00.00 | 4:05.54 | 0 | 18428
2 | 4:05.54 | 4:49.49 | 18429 | 40152
3 | 8:55.28 | 4:04.51 | 40153 | 58503
4 | 13:00.04 | 5:19.69 | 58504 | 82497
5 | 18:19.73 | 4:28.23 | 82498 | 102620
6 | 22:48.21 | 5:18.21 | 102621 | 126491
7 | 28:06.42 | 5:30.27 | 126492 | 151268
8 | 33:36.69 | 5:01.44 | 151269 | 173887
9 | 38:38.38 | 4:46.25 | 173888 | 195362
10 | 43:24.63 | 5:15.53 | 195363 | 219040

Range status and errors

Selected range

Filename D:\Music\2005 - Коралі.wav

Peak level 100.0 %
Extraction speed 0.4 X
Range quality 100.0 %
Copy CRC 33F6368C
Copy OK

No errors occurred

End of status report
fooCDtect log

fooCDtect - foobar2000 + auCDtect, baralgin.

auCDtect: CD records authenticity detector, version 0.8.2
Copyright (c) 2004 Oleg Berngardt. All rights reserved.
Copyright (c) 2004 Alexander Djourik. All rights reserved.

mode: 0

=======================================================
Track: 01 - Поцухи
Quality: CDDA, 100%
=======================================================
Track: 02 - Ой, чумаче, чумаче
Quality: CDDA, 100%
=======================================================
Track: 03 - Ой, лихо — не біда
Quality: CDDA, 100%
=======================================================
Track: 04 - Іване й Василь
Quality: CDDA, 100%
=======================================================
Track: 05 - Весняночко, паняночко
Quality: CDDA, 99%
=======================================================
Track: 06 - Колискова
Quality: CDDA, 100%
=======================================================
Track: 07 - Вилети, гулю, вилети
Quality: CDDA, 99%
=======================================================
Track: 08 - Ой, піду я в полонину
Quality: CDDA, 99%
=======================================================
Track: 09 - Перун
Quality: CDDA, 100%
=======================================================
Track: 10 - Же коза стоїть
Quality: CDDA, 100%
=======================================================
Зелене (2005)



Назва: Зелене
Рік: 2005
Виконавці:
Тетяна Шамшетдінова — автор композицій.
Тетяна Шамшетдінова, Геннадій Сидоров — продюсування, аранжування.
Андрій Макаренко — запис/зведення/мастерінг.
За участі:
Олена Львова — вокал (10);
Тетяна Шамшетдінова — клавішні;
Петро Яковенко — труба, побічний вокал (6, 11);
Андрій Макаренко — побічний вокал (6, 11);
Геннадій Сидоров — гітари, мелодекламація (3, 4), побічний вокал (6, 11).
Запис пісень непрофесійних виконавців здійснено під час народних свят.
Студія «Кофеїн».

Пісні:
01. Сурові тріски
02. Івано-Funkівська
03. ДайБо
04. ДайБо [реприза]
05. Кицю-кицю
06. Зелене
07. Вилети, гулю
08. Колись так не було (як тепер)
09. Балада про Пана Бога й небожат
10. Колискова світу
11. Зелене [радіо версія]

Тривалість: 00:49:44
Мова: українська
Аудіо-кодек: FLAC
Бітрейт: 911 кб/с

Додаткова інформація:
Ви, гадаю, і самі вже помітили, що цей диск є родичем альбому "Коралі", червоненького такого. Що ж, це побратимство є не тільки зовнішнім, оскільки і тут мова йде про пошук у дуже цікавому, як на мене, напрямку. Адже ми, людство, маємо зараз безліч уламків, уривків давніх систем і засобів світосприйняття, і це стосується музики так само, як і багато чого іншого. Але нам, сучасним, на сьогоднішній день замало спостерігати фрагменти, замало піддавати їх критичному аналізу. Потрібне щось інше – співпереживання, пряме переживання давнього досвіду у сучасних умовах, за допомогою сучасних засобів. І представлена цим альбомом сучасна інтерпретація традиційної української музики, гадаю, є одним з кроків не тільки вперед, а і вглиб. Насамперед – вглиб. Мені нинішня спроба здається вдалою. Якщо вона не остання – сподіваюся, що це так – то навіть ми, пересічні слухачі, згодом матимемо дуже цікавий квиток на проїзд до центру. Куди ми з ним поїдемо – то вже справа інша, кожен сам обирає напрямок. Врешті решт, всі шляхи ведуть самі знаєте куди. "Зелене" – чудово. Дуже рекомендую.

Антон Йожик Лейба
EAC log

Exact Audio Copy V1.0 beta 1 from 15. November 2010

EAC extraction logfile from 4. March 2011, 9:03

Сучасна інтерпретація традиційної української музики / Зелене

Used drive : Optiarc DVD RW AD-7200A Adapter: 0 ID: 0

Read mode : Secure
Utilize accurate stream : Yes
Defeat audio cache : Yes
Make use of C2 pointers : No

Read offset correction : 0
Overread into Lead-In and Lead-Out : No
Fill up missing offset samples with silence : Yes
Delete leading and trailing silent blocks : No
Null samples used in CRC calculations : No
Used interface : Native Win32 interface for Win NT & 2000

Used output format : Internal WAV Routines
Sample format : 44.100 Hz; 16 Bit; Stereo

TOC of the extracted CD

Track | Start | Length | Start sector | End sector
---------------------------------------------------------
1 | 0:00.00 | 3:45.19 | 0 | 16893
2 | 3:45.19 | 5:49.00 | 16894 | 43068
3 | 9:34.19 | 5:04.06 | 43069 | 65874
4 | 14:38.25 | 1:24.05 | 65875 | 72179
5 | 16:02.30 | 4:22.63 | 72180 | 91892
6 | 20:25.18 | 4:54.74 | 91893 | 114016
7 | 25:20.17 | 5:33.00 | 114017 | 138991
8 | 30:53.17 | 4:30.22 | 138992 | 159263
9 | 35:23.39 | 5:05.27 | 159264 | 182165
10 | 40:28.66 | 5:21.47 | 182166 | 206287
11 | 45:50.38 | 3:53.48 | 206288 | 223810

Range status and errors

Selected range

Filename D:\Music\2005 - Зелене.wav

Peak level 97.7 %
Extraction speed 0.3 X
Range quality 100.0 %
Copy CRC 1AFDBAEB
Copy OK

No errors occurred

End of status report
fooCDtect log

fooCDtect - foobar2000 + auCDtect, baralgin.

auCDtect: CD records authenticity detector, version 0.8.2
Copyright (c) 2004 Oleg Berngardt. All rights reserved.
Copyright (c) 2004 Alexander Djourik. All rights reserved.

mode: 0

=======================================================
Track: 01 - Сурові тріски
Quality: CDDA, 100%
=======================================================
Track: 02 - Івано-Funkівська
Quality: CDDA, 100%
=======================================================
Track: 03 - ДайБо
Quality: CDDA, 100%
=======================================================
Track: 04 - ДайБо [реприза]
Quality: CDDA, 99%
=======================================================
Track: 05 - Кицю-кицю
Quality: CDDA, 100%
=======================================================
Track: 06 - Зелене
Quality: CDDA, 100%
=======================================================
Track: 07 - Вилети, гулю
Quality: CDDA, 100%
=======================================================
Track: 08 - Колись так не було (як тепер)
Quality: CDDA, 99%
=======================================================
Track: 09 - Балада про Пана Бога й небожат
Quality: CDDA, 100%
=======================================================
Track: 10 - Колискова світу
Quality: CDDA, 100%
=======================================================
Track: 11 - Зелене [радіо версія]
Quality: CDDA, 100%
=======================================================
Весільні (2006)



Назва: Весільні
Рік: 2006
Виконавці:
В’ячеслав Колосов — звукорежисер, семилинг.
Юрій Дерський — аранжування, синтезатор, акустична гітара, акордеон.
Запис пісень непрофесійних виконавців здійснено під час народних свят.

Пісні:
01. Даю я телицю
02. Я в кривого танця
03. Ой, у саду вишневому
04. Я си хлопець молоденький
05. Ішов монах із походу
06. Ой, чи той то Омелько
07. Од Кракова за воячка ми взяли
08. Ой, як же було ізпрежди віка
09. Да весняночко-паняночко
10. Ой, на нашій да веснянці
11. Ой, пошла б я на вулицю погуляла
12. В місті Віфліємі три дерева росли
13. Пусті мене, маті, до хлопця хати
14. Ой, сонце й сонце й сонесейку
15. Ой, дай, Боже, в добрий час

Тривалість: 00:44:15
Мова: українська
Аудіо-кодек: FLAC
Бітрейт: 954 кб/с

Додаткова інформація:
Цікава новина для всіх, хто із задоволенням згадує збірки "Коралі" та "Зелене" – диск "Весільні" продовжує серію видань сучасних інтерпретацій традиційної української музики. Цього разу автором усіх інтерпретацій виступив Юрій Дерський – якщо не помиляюся, доцент Луганського державного інституту культури та мистецтв, продюсер та аранжувальник. Втім, посади особливого значення, звісно, не мають. А має значення те, що всі ці аранжування витримано у веселковій гаммі, у сонячному настрої, у бадьорому танцювальному ключі. І, таким чином, альбом пропонує цікавий сучасний погляд на традиційні українські весільні пісні. Вони і без того не страждали на брак позитиву, а тепер – і поготів. Як на мене, весілля із таким музичним супроводом привернуло б увагу не просто веселим настроєм, а й неабиякою оригінальністю. Автентичне виконання плюс складні ритми сучасної електронної музики – це, повірте, щось.

Антон Йожик Лейба
EAC log

Exact Audio Copy V1.0 beta 1 from 15. November 2010

EAC extraction logfile from 4. March 2011, 9:32

Сучасна інтерпретація традиційної української музики / Весільні

Used drive : Optiarc DVD RW AD-7200A Adapter: 0 ID: 0

Read mode : Secure
Utilize accurate stream : Yes
Defeat audio cache : Yes
Make use of C2 pointers : No

Read offset correction : 0
Overread into Lead-In and Lead-Out : No
Fill up missing offset samples with silence : Yes
Delete leading and trailing silent blocks : No
Null samples used in CRC calculations : No
Used interface : Native Win32 interface for Win NT & 2000

Used output format : Internal WAV Routines
Sample format : 44.100 Hz; 16 Bit; Stereo

TOC of the extracted CD

Track | Start | Length | Start sector | End sector
---------------------------------------------------------
1 | 0:00.00 | 5:02.31 | 0 | 22680
2 | 5:02.31 | 2:48.25 | 22681 | 35305
3 | 7:50.56 | 1:59.52 | 35306 | 44282
4 | 9:50.33 | 2:44.25 | 44283 | 56607
5 | 12:34.58 | 3:58.71 | 56608 | 74528
6 | 16:33.54 | 2:46.58 | 74529 | 87036
7 | 19:20.37 | 2:41.22 | 87037 | 99133
8 | 22:01.59 | 3:03.61 | 99134 | 112919
9 | 25:05.45 | 2:30.44 | 112920 | 124213
10 | 27:36.14 | 2:24.58 | 124214 | 135071
11 | 30:00.72 | 3:12.58 | 135072 | 149529
12 | 33:13.55 | 3:26.19 | 149530 | 164998
13 | 36:39.74 | 2:29.58 | 164999 | 176231
14 | 39:09.57 | 2:41.25 | 176232 | 188331
15 | 41:51.07 | 2:23.64 | 188332 | 199120

Range status and errors

Selected range

Filename D:\Music\2006 - Весільні.wav

Peak level 100.0 %
Extraction speed 0.2 X
Range quality 100.0 %
Copy CRC ABF61DC6
Copy OK

No errors occurred

End of status report
fooCDtect log

fooCDtect - foobar2000 + auCDtect, baralgin.

auCDtect: CD records authenticity detector, version 0.8.2
Copyright (c) 2004 Oleg Berngardt. All rights reserved.
Copyright (c) 2004 Alexander Djourik. All rights reserved.

mode: 0

=======================================================
Track: 01 - Даю я телицю
Quality: CDDA, 100%
=======================================================
Track: 02 - Я в кривого танця
Quality: CDDA, 100%
=======================================================
Track: 03 - Ой, у саду вишневому
Quality: CDDA, 100%
=======================================================
Track: 04 - Я си хлопець молоденький
Quality: CDDA, 100%
=======================================================
Track: 05 - Ішов монах із походу
Quality: CDDA, 100%
=======================================================
Track: 06 - Ой, чи той то Омелько
Quality: CDDA, 100%
=======================================================
Track: 07 - Од Кракова за воячка ми взяли
Quality: CDDA, 100%
=======================================================
Track: 08 - Ой, як же було ізпрежди віка
Quality: CDDA, 100%
=======================================================
Track: 09 - Да весняночко-паняночко
Quality: CDDA, 100%
=======================================================
Track: 10 - Ой, на нашій да веснянці
Quality: CDDA, 100%
=======================================================
Track: 11 - Ой, пошла б я на вулицю погуляла
Quality: CDDA, 100%
=======================================================
Track: 12 - В місті Віфліємі три дерева росли
Quality: CDDA, 100%
=======================================================
Track: 13 - Пусті мене, маті, до хлопця хати
Quality: CDDA, 100%
=======================================================
Track: 14 - Ой, сонце й сонце й сонесейку
Quality: CDDA, 100%
=======================================================
Track: 15 - Ой, дай, Боже, в добрий час
Quality: CDDA, 100%
=======================================================
Осяйні (2006)



Назва: Осяйні
Рік: 2006
Виконавці:
Сергій Гера — автор композицій та продюсер альбому, аранжування, програмування та редакція.
Марта Шпак — вокал.
Записано та зведено на Molotov 20 Studio.

Пісні:
01. Розвивайся, сухий дубе
02. Їхав козак з України
03. Ой зажурилася
04. На нашу хлопці
05. Ой стояла липка
06. Що ж бо і це за село
07. Ой Купало-Розкупало
08. Ой у саду соловейко
09. Петрівочка, ой щедрівочка
10. Світи місяцю

Тривалість: 00:49:00
Мова: українська
Аудіо-кодек: FLAC
Бітрейт: 908 кб/с

Додаткова інформація:
У колекції сучасних інтерпретацій традиційної української музики – чергове поповнення. Причому – з дещо оновленою концепцією. Якщо пам’ятаєте, на перших альбомах піддавався сучасній обробці автентичний спів. Цього ж разу – вокальні партії заспівано спеціально для проекту. Отже, Шура Гера – знаємо його, окрім іншого, як Molotov20 – і дівчина із дуже весняним ім’ям, Марта Шпак. Якщо альбом має назву "Осяйні", то він просто зобов’язаний бути привітним, приязним до слухача, не лякати його натиском, а колисати на хвилях розмаїтих ритмів. Власне, саме це і відбувається – Шура давно уже зарекомендував себе як досвідчений фахівець та талановитий електронник. Ритми "Осяйних" заворожують м’якою, тихою ходою. Марта, зі свого боку, теж сюди потрапила явно не випадково. Її голос має дуже цікаву особливість – він якось нез’ясовно поєднує в собі минуле і майбутнє. Він ніби і рідний – і якось не звідси. Тому і спів плине якби і всередині музики, і незалежно від неї, у власних берегах. Не стану заперечувати – інтригує. Більше того. Днями почув один з цих треків по радіо і подумав, що співає Ніна Матвієнко. А зараз слухаю – й не схоже наче. Ось така дівчина Марта, з голосом мінливим, наче кішечка – причаровує потихеньку. Чого і Вам бажаю.

Антон Йожик Лейба
EAC log

Exact Audio Copy V1.0 beta 1 from 15. November 2010

EAC extraction logfile from 4. March 2011, 9:18

Сучасна інтерпретація традиційної української музики / Осяйні

Used drive : Optiarc DVD RW AD-7200A Adapter: 0 ID: 0

Read mode : Secure
Utilize accurate stream : Yes
Defeat audio cache : Yes
Make use of C2 pointers : No

Read offset correction : 0
Overread into Lead-In and Lead-Out : No
Fill up missing offset samples with silence : Yes
Delete leading and trailing silent blocks : No
Null samples used in CRC calculations : No
Used interface : Native Win32 interface for Win NT & 2000

Used output format : Internal WAV Routines
Sample format : 44.100 Hz; 16 Bit; Stereo

TOC of the extracted CD

Track | Start | Length | Start sector | End sector
---------------------------------------------------------
1 | 0:00.00 | 5:28.30 | 0 | 24629
2 | 5:28.30 | 5:17.59 | 24630 | 48463
3 | 10:46.14 | 4:55.09 | 48464 | 70597
4 | 15:41.23 | 4:32.69 | 70598 | 91066
5 | 20:14.17 | 4:55.26 | 91067 | 113217
6 | 25:09.43 | 5:03.54 | 113218 | 135996
7 | 30:13.22 | 4:25.30 | 135997 | 155901
8 | 34:38.52 | 4:38.48 | 155902 | 176799
9 | 39:17.25 | 5:33.74 | 176800 | 201848
10 | 44:51.24 | 4:08.32 | 201849 | 220480

Range status and errors

Selected range

Filename D:\Music\2006 - Осяйні.wav

Peak level 97.7 %
Extraction speed 0.3 X
Range quality 99.9 %
Copy CRC EEA6694D
Copy OK

No errors occurred

End of status report
fooCDtect log

fooCDtect - foobar2000 + auCDtect, baralgin.

auCDtect: CD records authenticity detector, version 0.8.2
Copyright (c) 2004 Oleg Berngardt. All rights reserved.
Copyright (c) 2004 Alexander Djourik. All rights reserved.

mode: 0

=======================================================
Track: 01 - Розвивайся, сухий дубе
Quality: CDDA, 100%
=======================================================
Track: 02 - Їхав козак з України
Quality: CDDA, 100%
=======================================================
Track: 03 - Ой зажурилася
Quality: CDDA, 100%
=======================================================
Track: 04 - На нашу хлопці
Quality: CDDA, 100%
=======================================================
Track: 05 - Ой стояла липка
Quality: CDDA, 99%
=======================================================
Track: 06 - Що ж бо і це за село
Quality: CDDA, 99%
=======================================================
Track: 07 - Ой Купало-Розкупало
Quality: CDDA, 99%
=======================================================
Track: 08 - Ой у саду соловейко
Quality: CDDA, 100%
=======================================================
Track: 09 - Петрівочка, ой щедрівочка
Quality: CDDA, 100%
=======================================================
Track: 10 - Світи місяцю
Quality: CDDA, 100%
=======================================================
Тривалість: 03:11:39
Мова: українська
Аудіо-кодек: FLAC
Бітрейт: 908-967 кб/с
Ріп: image + CUE
Джерело: власний ріп

Якщо Ви справді бажаєте підтримати українське - після прослуховування, якщо музика вам сподобалась, придбайте ліцензійний диск. Підтримаймо вітчизняних виконавців!


Золотий реліз (завантажене не впливає на рейтинг)
 Трекер:    Зареєстрований   

Завантажити / скачати українську музику



відео для новачків



 Зареєстрований:   2011-03-04 22:28
 Розмір:   1.27 GB 
 Оцінка музики:   9.9/10 (Голосів: 37)
   
ssTAss 
Модератор музики


З нами з: 05.07.08
Востаннє: 22.08.17
Повідомлень: 11807

2011-03-04 23:37  
оформити реліз треба як дискографію
назва
VA - Сучасна інтерпретація традиційної української музики (4 альбоми) (2005-2006) [FLAC] | Folk / Electronic
і далі все решта
обкладинку взяти якусь загальну (не з одного з альбомів) або створити з 4-ох обкладинок одну (можу допомогти)

Додано через 25 хвилин 51 секунду:

civ-е, уважніше читайте повідомлення
написав ж
ssTAss написано:
оформити реліз треба як дискографію

тобто не тільки назву, але й
ssTAss написано:
далі все решта

тобто всю загальну інформацію, як в звичайному релізі

fv007 
VIP


З нами з: 01.01.10
Востаннє: 22.08.17
Повідомлень: 452

2011-03-07 11:50  
Чудовий реліз!
Дякую!

ZhenyaShot 
Новенький


З нами з: 08.09.10
Востаннє: 03.05.17
Повідомлень: 5

2011-05-15 15:14  
Дуже дякую!Приємно почути рідні мотиви у такій обробці.
natashelka 
VIP


З нами з: 23.05.10
Востаннє: 22.08.17
Повідомлень: 453

2011-09-12 20:54  
Послухала - і офіґєла! Це в рази краще за Енігму! за Роксет! за купу західних гуртів(С)! уві мні відкрилася ще одна грань українства

Lev 
VIP


З нами з: 14.10.09
Востаннє: 19.08.17
Повідомлень: 1819

2011-09-13 18:25  
natashelka

пан Гера порожняк не гонить Wink (1)

boberyn 
Свій


З нами з: 17.03.11
Востаннє: 04.02.15
Повідомлень: 81

2012-03-13 14:04  
піддайте роздачі!
мирось13 
Новенький


З нами з: 16.06.12
Востаннє: 22.08.17
Повідомлень: 2

2012-07-10 14:31  
Вельми дякую! Файні пісні і чудова адаптація до сучасности!
Speelberg 
Новенький


З нами з: 20.11.12
Востаннє: 20.11.12
Повідомлень: 1

2012-11-20 01:57  
Круто!!
gorec-perec 
Новенький


З нами з: 16.03.12
Востаннє: 22.03.13
Повідомлень: 1

2013-03-22 19:53  
Давно шукав щось подібне, дякую!
wazzka 
Новенький


З нами з: 13.05.11
Востаннє: 21.07.15
Повідомлень: 1

2015-01-31 14:55  
Піддайте роздачі! Будь-ласка!
dytyna 
Новенький


З нами з: 03.04.11
Востаннє: 12.03.17
Повідомлень: 23

2015-08-22 21:05  
Питання таке: чому ніде не пишеться про тих первісних виконавців, від кого це записано? На трьох дисках їхні голоси звучать, вони живуть в тій чи іншій частині України...
civ 
VIP


З нами з: 16.02.11
Востаннє: 21.08.17
Повідомлень: 453

2015-08-22 22:08  
Оригінальні треки для обробки взяті звідси: https://toloka.to/t45820 При бажанні можете знайти первісних виконавців.
Леля22 
Попереджень: 2
Попереджень: 2 


З нами з: 22.07.15
Востаннє: 21.08.17
Повідомлень: 699

2015-09-09 23:01  
Дуже крута, класна музика! Дуууже подобається)
apxibamop 
Новенький


З нами з: 03.11.12
Востаннє: 26.09.15
Повідомлень: 1

2015-09-26 23:13  
Свого часу закачав Коралі, та був дуже задоволений. Слухаю до сих пір. Надіюсь, що ці збірки усі, як і Коралі - суперові. Дакую за реліз - обовязково постараюсь придбати оригінальні CD
Ваш часовий пояс: GMT + 2 Години

Нова тема   Відповісти