Битва за планету Терра / Battle for Terra (2007) 720р 2xUkr/Eng | Sub Eng

Нові коментарі

Нова тема   Відповісти
Автор Повідомлення
braveboy 
Відео Гуртом - команда HD
Відео Гуртом - команда HD


З нами з: 15.06.10
Востаннє: 13.08.17
Повідомлень: 949

2011-02-18 08:41  

Битва за планету Терра / Battle for Terra (2007) 720р 2xUkr/Eng | Sub Eng





З латинської "Terra"перекладається як "Земля".


Жанр: анімація, пригодницький, дитячий, фантастика
Країна: США


Кіностудія / кінокомпанія: MeniThings LLC, Snoot Entertainment
Режисер: Арістоменіс Тсірбас
Актори: Чед Ален, Розанна Аркетт, Білл Бірч, Брук Блум, Том Коноллі, Браян Кокс, Девід Кросс, Беверлі Д`Анджело, Джим Девоті, Кріс Еванс

Сюжет:
Коли на планеті Земля висохли всі річки, зникли ліси, а повітря перетаорилося на пил, люди облетіли галактику, щоб знайти собі новий будинок. Прекрасна планета Терра стала надією людей на порятунок. Хитромудрий пристрій земля Терраформер повинен перетворити терру в рай для людей і жах для місцевих жителів. Катастрофа для терріанців неменуча вони приречені. Рахунок йде на дні і години. І все б шло за планом, якби не одна випадковість. Дівчинка з Терри Молу підбирає пораненого пілота. Вони стають кращими друзями і разом знаходять хитрий спосіб врятувати терру останню живу планету галактики. Неважко здогадаються що незабаром дівчинка та пілот опиняться в епіцентрі небезпечних і дововижних пригод......



Тривалість: 01:19:17
Якість: 720p
Відео:
кодек:
розмір кадру: 1280 x 544
бітрейт: 4215 кб/с

Аудіо # 1:
мова: українська
переклад: професійний дубльований DVD
кодек: 5.1
бітрейт: 384 кб/с

Аудіо # 2:
мова: українська
переклад: багатоголосий закадровий TET
кодек: 2.0
бітрейт:192 кб/с

Аудіо # 3:
мова: англійська
переклад: оригінал
кодек: 5.1
бітрейт: 1509 кб/с

Субтитри:
мова: англійська
тип: програмні (м'які)
формат: *.srt

720p by braveboy
log

[info]: frame I:1188 Avg QP:12.21 size: 77635
[info]: frame P:33488 Avg QP:13.51 size: 38527
[info]: frame B:79191 Avg QP:14.74 size: 14128
[info]: consecutive B-frames: 7.8% 7.2% 18.7% 16.9% 12.3% 34.0% 2.9%
[info]: mb I I16..4: 10.4% 73.0% 16.6%
[info]: mb P I16..4: 5.0% 21.8% 4.2% P16..4: 28.7% 20.0% 14.5% 0.9% 0.4% skip: 4.6%
[info]: mb B I16..4: 0.7% 2.0% 0.5% B16..8: 33.8% 17.1% 5.0% direct: 6.6% skip:34.4% L0:42.0% L1:42.5% BI:15.5%
[info]: 8x8 transform intra:69.2% inter:57.0%
[info]: coded y,uvDC,uvAC intra: 79.2% 84.1% 74.2% inter: 32.9% 32.3% 17.1%
[info]: i16 v,h,dc,p: 25% 16% 6% 53%
[info]: i8 v,h,dc,ddl,ddr,vr,hd,vl,hu: 15% 13% 12% 8% 9% 10% 10% 10% 12%
[info]: i4 v,h,dc,ddl,ddr,vr,hd,vl,hu: 12% 11% 7% 8% 15% 13% 13% 10% 12%
[info]: i8c dc,h,v,p: 43% 24% 17% 15%
[info]: Weighted P-Frames: Y:14.8% UV:10.7%
[info]: ref P L0: 54.5% 8.1% 17.8% 6.5% 4.5% 3.3% 2.6% 1.9% 0.6% 0.1%
[info]: ref B L0: 76.7% 12.2% 5.2% 2.6% 1.9% 1.0% 0.5%
[info]: ref B L1: 92.6% 7.4%
[info]: kb/s:4213.27
Info

Video
ID : 1
Format : AVC
Format/Info : Advanced Video Codec
Format profile : [email protected]
Format settings, CABAC : Yes
Format settings, ReFrames : 8 frames
Codec ID : V_MPEG4/ISO/AVC
Duration : 1h 19mn
Bit rate : 4 215 Kbps
Width : 1 280 pixels
Height : 544 pixels
Display aspect ratio : 2.35:1
Frame rate mode : Constant
Frame rate : 23.976 fps
Color space : YUV
Chroma subsampling : 4:2:0
Bit depth : 8 bits
Scan type : Progressive
Bits/(Pixel*Frame) : 0.252
Stream size : 2.26 GiB (65%)
Title : Battle For Terra (2007) 720p by braveboy
Writing library : core 135 r2345 f0c1c53
Encoding settings : cabac=1 / ref=8 / deblock=1:-3:-3 / analyse=0x3:0x133 / me=umh / subme=9 / psy=1 / psy_rd=0.80:0.00 / mixed_ref=1 / me_range=34 / chroma_me=1 / trellis=1 / 8x8dct=1 / cqm=0 / deadzone=21,11 / fast_pskip=0 / chroma_qp_offset=-2 / threads=6 / lookahead_threads=1 / sliced_threads=0 / nr=0 / decimate=0 / interlaced=0 / bluray_compat=0 / constrained_intra=0 / bframes=6 / b_pyramid=2 / b_adapt=2 / b_bias=0 / direct=1 / weightb=1 / open_gop=0 / weightp=2 / keyint=240 / keyint_min=24 / scenecut=40 / intra_refresh=0 / rc=2pass / mbtree=0 / bitrate=4215 / ratetol=1.0 / qcomp=0.60 / qpmin=10 / qpmax=51 / qpstep=4 / cplxblur=20.0 / qblur=0.5 / ip_ratio=1.40 / pb_ratio=1.30 / aq=1:1.00
Default : Yes
Forced : No

Audio #1
ID : 2
Format : AC-3
Format/Info : Audio Coding 3
Mode extension : CM (complete main)
Format settings, Endianness : Big
Codec ID : A_AC3
Duration : 1h 19mn
Bit rate mode : Constant
Bit rate : 384 Kbps
Channel(s) : 6 channels
Channel positions : Front: L C R, Side: L R, LFE
Sampling rate : 48.0 KHz
Bit depth : 16 bits
Compression mode : Lossy
Stream size : 217 MiB (6%)
Title : 5.1 @ 384 kbps [DVD]
Language : Ukrainian
Default : Yes
Forced : No

Audio #2
ID : 3
Format : AC-3
Format/Info : Audio Coding 3
Mode extension : CM (complete main)
Format settings, Endianness : Big
Codec ID : A_AC3
Duration : 1h 19mn
Bit rate mode : Constant
Bit rate : 192 Kbps
Channel(s) : 2 channels
Channel positions : Front: L R
Sampling rate : 48.0 KHz
Bit depth : 16 bits
Compression mode : Lossy
Stream size : 109 MiB (3%)
Title : 2.0 @ 192 kbps [TET]
Language : Ukrainian
Default : No
Forced : No

Audio #3
ID : 4
Format :
Format/Info : Digital Theater Systems
Mode : 16
Format settings, Endianness : Big
Codec ID : A_DTS
Duration : 1h 19mn
Bit rate mode : Constant
Bit rate : 1 509 Kbps
Channel(s) : 6 channels
Channel positions : Front: L C R, Side: L R, LFE
Sampling rate : 48.0 KHz
Bit depth : 24 bits
Compression mode : Lossy
Stream size : 854 MiB (24%)
Title : 5.1 @ 1509 kbps
Language : English
Default : No
Forced : No

Text
ID : 5
Format : UTF-8
Codec ID : S_TEXT/UTF8
Codec ID/Info : UTF-8 Plain Text
Title : Full
Language : English
Default : No
Forced : No

Menu
00:00:00.000 : en:00:00:00.000
00:09:33.072 : en:00:09:33.072
00:13:14.751 : en:00:13:14.751
00:16:26.652 : en:00:16:26.652
00:18:03.664 : en:00:18:03.664
00:24:23.627 : en:00:24:23.627
00:31:02.067 : en:00:31:02.067
00:38:41.818 : en:00:38:41.818
00:46:45.927 : en:00:46:45.927
00:53:20.989 : en:00:53:20.989
01:00:13.735 : en:01:00:13.735
01:14:02.979 : en:01:14:02.979
Скріншоти:






 Трекер:    Зареєстрований   

Завантажити / скачати мультфільм українською



відео для новачків



 Зареєстрований:   2014-06-21 18:24
 Розмір:   3.48 GB 
 Оцінка мультфільму:   9.4/10 (Голосів: 37)
   
bot 
робот


З нами з: 30.09.07
Востаннє: 26.05.05
Повідомлень: 17412

2011-02-18 08:42  
Тему перенесено з Мультфільми в HD до форуму Анонси релізів від Відео Гуртом


igorgladunyak

Vil 
Частий відвідувач


З нами з: 13.12.10
Востаннє: 17.08.17
Повідомлень: 40

2011-02-18 23:04  
мультфільм в 3д? Rolleyes (3)
braveboy 
Відео Гуртом - команда HD
Відео Гуртом - команда HD


З нами з: 15.06.10
Востаннє: 13.08.17
Повідомлень: 949

2011-02-18 23:17  
Vil написано:
мультфільм в 3д

ні

bot 
робот


З нами з: 30.09.07
Востаннє: 26.05.05
Повідомлень: 17412

2011-02-18 23:50  
Тему перенесено з Анонси релізів від Відео Гуртом до форуму Мультфільми в HD


igorgladunyak

Mirqn 
Відео Гуртом - координатор озвучення


З нами з: 17.06.09
Востаннє: 27.07.15
Повідомлень: 2460

2011-02-20 19:26  
Додав на головну
assman 
VIP


З нами з: 09.11.09
Востаннє: 22.08.17
Повідомлень: 375

2011-03-02 14:16  
igorgladunyak написано:
переклад: професійний дубльований

Чогось в тому дубльованому перекладі дуже чується російська. Чи це лише в мене?'
А мультфільм мені сподобався. Хоч і вийшов такий собі аля-аватар, проте було цікаво.

dansl 
Новенький


З нами з: 27.10.09
Востаннє: 12.07.17
Повідомлень: 1

2011-03-06 15:42  
Хм, вроді цей мультфільм 2007 року, а не 2009, і як на мене це аватар схожий на нього, а не він на аватара.
Віктор 
Відео Гуртом - субтитрування
Відео Гуртом - субтитрування


З нами з: 09.01.10
Востаннє: 11.08.17
Повідомлень: 8686

2011-12-01 17:12  
assman написано:
Чогось в тому дубльованому перекладі дуже чується російська. Чи це лише в мене?'


Одним словом халтура, ще й "дубляж" двоголосий.

Skrunja 
Свій


З нами з: 13.06.12
Востаннє: 22.08.17
Повідомлень: 55

2012-11-20 18:46  
А чи можна зробити окреме посилання на українську доріжку?
patriot2305 
Почесний гуртомівець


З нами з: 23.04.11
Востаннє: 21.12.16
Повідомлень: 4137

2014-06-21 18:33  
Якось скрінів не вистачає, чи це вони в мене тільки не відображаються?
karvai0 
Відео Гуртом - запис з ТБ
Відео Гуртом - запис з ТБ


З нами з: 18.01.10
Востаннє: 11.08.17
Повідомлень: 3677

2014-06-21 18:36  
braveboy написано:
З латинської "Terra"перекладається як "Земля".

з португальської також

braveboy 
Відео Гуртом - команда HD
Відео Гуртом - команда HD


З нами з: 15.06.10
Востаннє: 13.08.17
Повідомлень: 949

2014-06-21 18:39  
patriot2305 написано:
Якось скрінів не вистачає, чи це вони в мене тільки не відображаються?

неможу завантажити вибиває помилку пізніше додам
karvai0 написано:
з португальської також

цього не знав Happy

MutuLI 
Відео Гуртом - фільмокрай
Відео Гуртом - фільмокрай


З нами з: 08.03.09
Востаннє: 22.08.17
Повідомлень: 1301

2014-06-24 12:03  
Цитата:
Аудіо # 2:
мова: українська
переклад: багатоголосий закадровий TET
кодек: 5.1
бітрейт:192 кб/с

2.0 доріжка

Косячок справжній 
VIP


З нами з: 29.02.12
Востаннє: 19.08.17
Повідомлень: 1010

2017-05-17 22:47  
Нічого такого, спрощено все.
Якщо хтось дивитиметься, то слухайте другу доріжку, бо в першій якісь кацапські голосини чути.

Ваш часовий пояс: GMT + 2 Години

Нова тема   Відповісти