Кораліна у Світі Кошмарів / Coraline (2009) 720p Ukr/Eng | Sub Ukr/Eng

Нові коментарі

Нова тема   Відповісти
Автор Повідомлення
braveboy 
Відео Гуртом - команда HD
Відео Гуртом - команда HD


З нами з: 15.06.10
Востаннє: 13.08.17
Повідомлень: 949

2011-01-24 00:22  

Кораліна у Світі Кошмарів / Coraline (2009) 720p Ukr/Eng | Sub Ukr/Eng


Кораліна у Світі Кошмарів / Coraline (2009) 720p Ukr/Eng | Sub Ukr/Eng

Від режисера фільму « Жах перед Різдвом »


Жанр: фентезі, пригодницький, сімейний
Країна: США



Кіностудія / кінокомпанія: Laika Entertainment
Режисер: Генрі Селік
Актори: Дакота Феннінг, Тері Хетчер, Дженніфер Сондерс, Доун Френч, Джон Ходжман, Йан МакШейн, Кейт Девід, Роберт Бейлі
Бюджет фільму

Бюджет: $60 000 000, Зібрано в США: $75 286 229, Зібрано у світі: $114 287 139
Сюжет:
За сюжетом, 11-річна Кораліна Джонс разом із батьками переїжджає до іншого штату. Дівчинка нудьгує – друзі її залишилися у рідному Мічигані, а батьки постійно працюють і лише гримають на неї. Тож вона намагається розважати себе, як може. Тато радить їй походити по будинку і порахувати всі двері і вікна. І чисто випадково дівчинка знаходить маленькі потаємні дверцята, за якими заховано інший світ – світ, де дім ошатний, їжа смачна, а батьки привітні й веселі. Все б наче нічого, але для того, щоб їй залишитися в цьому «ідеальному» світі, Інша Мама вимагає пришити ґудзики замість очей…

Чи знаєте ви, що...:


* У фільмі батько Коралини взутий у кімнатні тапочки Monkeybone. "Мавпяча кістка" (Monkeybone) - фільм, знятий Генрі Селиком.
* Це самий довгий мультфільм, створеним за допомогою технології stop-motіon. Також це перший stop-motіon мультфільм, зроблений у 3D.
* Над створенням цього фільму трудилося 450 людей, у це число входять: аніматори, дизайнери і техніки.
* Профіль на доларі, даний на чай, належить режисерові.
* Усього було виготовлено 28 ляльок Коралини, сама велика з яких досягає 25 см у висоту.
* Сніг був зроблений із супер-клея і харчової соди.
Тривалість: 01:40:32
Якість: 720p
Відео:
кодек:
розмір кадру: 1280 x 692
бітрейт: 5194 кб/с

Аудіо # 1:
мова: українська
переклад: професійний дубльований
кодек: 5.1
бітрейт: 384 кб/с

Аудіо # 2:
мова: англійська
переклад: оригінал
кодек: 5.1
бітрейт: 640 кб/с

Переклад і озвучення виконано:


Субтитри:
мова: українська (Full)
тип: програмні (м'які)
формат: *.srt

Субтитри:
мова: англійська
тип: програмні (м'які)
формат: *.srt

Оригінальні розділи:
Збережено
720p by braveboy
Info
Format :
Format version : Version 2
File size : 4.37 GiB
Duration : 1h 40mn
Overall bit rate : 6 215 Kbps
Movie name : Coraline (2009) 720p by braveboy
Encoded date : UTC 2012-10-13 17:04:30
Writing application : mkvmerge v5.8.0 ('No Sleep / Pillow') built on Sep 2 2012 15:37:04
Writing library : libebml v1.2.3 + libmatroska v1.3.0

Video
ID : 1
Format : AVC
Format/Info : Advanced Video Codec
Format profile : [email protected]
Format settings, CABAC : Yes
Format settings, ReFrames : 8 frames
Codec ID : V_MPEG4/ISO/AVC
Duration : 1h 40mn
Bit rate : 5 194 Kbps
Width : 1 280 pixels
Height : 692 pixels
Display aspect ratio : 1.85:1
Frame rate mode : Constant
Frame rate : 23.976 fps
Color space : YUV
Chroma subsampling : 4:2:0
Bit depth : 8 bits
Scan type : Progressive
Bits/(Pixel*Frame) : 0.245
Stream size : 3.56 GiB (82%)
Title : Coraline (2009) 720p by braveboy
Writing library : core 125 r2208 d9d2288
Encoding settings : cabac=1 / ref=8 / deblock=1:-3:-3 / analyse=0x3:0x133 / me=umh / subme=10 / psy=1 / psy_rd=0.80:0.00 / mixed_ref=1 / me_range=32 / chroma_me=1 / trellis=2 / 8x8dct=1 / cqm=0 / deadzone=21,11 / fast_pskip=0 / chroma_qp_offset=-2 / threads=6 / lookahead_threads=1 / sliced_threads=0 / nr=0 / decimate=0 / interlaced=0 / bluray_compat=0 / constrained_intra=0 / bframes=6 / b_pyramid=2 / b_adapt=2 / b_bias=0 / direct=1 / weightb=1 / open_gop=0 / weightp=2 / keyint=240 / keyint_min=24 / scenecut=40 / intra_refresh=0 / rc=2pass / mbtree=0 / bitrate=5194 / ratetol=1.0 / qcomp=0.60 / qpmin=10 / qpmax=51 / qpstep=4 / cplxblur=20.0 / qblur=0.5 / ip_ratio=1.40 / pb_ratio=1.30 / aq=1:1.00
Default : Yes
Forced : No

Audio #1
ID : 2
Format : AC-3
Format/Info : Audio Coding 3
Mode extension : CM (complete main)
Format settings, Endianness : Big
Codec ID : A_AC3
Duration : 1h 40mn
Bit rate mode : Constant
Bit rate : 384 Kbps
Channel(s) : 6 channels
Channel positions : Front: L C R, Side: L R, LFE
Sampling rate : 48.0 KHz
Bit depth : 16 bits
Compression mode : Lossy
Stream size : 276 MiB (6%)
Title : 5.1 - 384 kbps [R5]
Language : Ukrainian
Default : Yes
Forced : No

Audio #2
ID : 3
Format : AC-3
Format/Info : Audio Coding 3
Mode extension : CM (complete main)
Format settings, Endianness : Big
Codec ID : A_AC3
Duration : 1h 40mn
Bit rate mode : Constant
Bit rate : 640 Kbps
Channel(s) : 6 channels
Channel positions : Front: L C R, Side: L R, LFE
Sampling rate : 48.0 KHz
Bit depth : 16 bits
Compression mode : Lossy
Stream size : 461 MiB (10%)
Title : 5.1 - 640 kbps
Language : English
Default : No
Forced : No

Text #1
ID : 4
Format : UTF-8
Codec ID : S_TEXT/UTF8
Codec ID/Info : UTF-8 Plain Text
Title : Full
Language : Ukrainian
Default : No
Forced : No

Text #2
ID : 5
Format : UTF-8
Codec ID : S_TEXT/UTF8
Codec ID/Info : UTF-8 Plain Text
Title : Inscriptions
Language : Ukrainian
Default : No
Forced : No

Text #3
ID : 6
Format : UTF-8
Codec ID : S_TEXT/UTF8
Codec ID/Info : UTF-8 Plain Text
Title : Full
Language : English
Default : No
Forced : No

Menu
00:00:00.000 : en:00:00:00.000
00:08:12.283 : en:00:08:12.283
00:13:56.210 : en:00:13:56.210
00:18:26.731 : en:00:18:26.731
00:23:09.471 : en:00:23:09.471
00:26:45.771 : en:00:26:45.771
00:32:34.578 : en:00:32:34.578
00:36:57.173 : en:00:36:57.173
00:40:39.187 : en:00:40:39.187
00:44:19.907 : en:00:44:19.907
00:50:50.005 : en:00:50:50.005
00:55:04.551 : en:00:55:04.551
01:00:19.825 : en:01:00:19.825
01:05:54.868 : en:01:05:54.868
01:11:01.591 : en:01:11:01.591
01:15:23.686 : en:01:15:23.686
01:17:27.893 : en:01:17:27.893
01:21:20.709 : en:01:21:20.709
01:27:05.345 : en:01:27:05.345
01:34:42.635 : en:01:34:42.635
Скріншоти:




Особиста оцінка: 0 - не дивився


 Трекер:    Зареєстрований   

Завантажити / скачати мультфільм українською



відео для новачків



 Зареєстрований:   2012-12-17 01:17
 Розмір:   4.37 GB 
 Оцінка мультфільму:   9.8/10 (Голосів: 26)
   
abodnya 
Відео Гуртом - фільмокрай
Відео Гуртом - фільмокрай


З нами з: 02.11.08
Востаннє: 21.08.17
Повідомлень: 5959

2011-01-24 01:06  
Ти ще досі не догнав? Не треба так підписувати релізи.
Підписуємо за шаблоном Конфуція
Цитата:
За основу береться базова структура:
Оригінальна назва (рік) [мова,мова] Якість [Hurtom].формат


Шаблон за яким ти підписуєш задовгий та програв в опитуванні з результатом 15:0
Такий шаблон викликав обурення багатьох модераторів та простих користувачів.

Як ще тобі сказати аби ти не підписував так свої релізи?!

abodnya 
Відео Гуртом - фільмокрай
Відео Гуртом - фільмокрай


З нами з: 02.11.08
Востаннє: 21.08.17
Повідомлень: 5959

2011-01-24 11:51  
Так-то краще, молодець
krap04ka 
Новенький


З нами з: 09.05.10
Востаннє: 27.05.15
Повідомлень: 14

2011-02-24 16:29  
станьте на роздачу, будь ласка!
St_Bandera 
Свій


З нами з: 19.09.09
Востаннє: 22.08.17
Повідомлень: 66

2011-04-13 09:27  
станьте на роздачу, будь ласка!
Sehrg 
Свій


З нами з: 25.12.09
Востаннє: 16.08.17
Повідомлень: 51

2012-12-17 02:09  
Жах було би краще
waloha 
VIP


З нами з: 29.12.09
Востаннє: 20.08.17
Повідомлень: 323

2012-12-27 20:10  
Гарний мультфільм, досить неординарний сюжет, гарний і веселий переклад, а в деяких місцях і страшно було Happy
BMK12 
Відео Гуртом - підтримка та поширення
Відео Гуртом - підтримка та поширення


З нами з: 13.04.09
Востаннє: 22.08.17
Повідомлень: 3110

2014-01-14 00:06  
Прохання роздати.
vovang6 
Свій


З нами з: 27.08.12
Востаннє: 22.08.17
Повідомлень: 90

2016-01-07 12:32  
дякую за мульт, досить цікавий, мені сподобався.
Ваш часовий пояс: GMT + 2 Години

Нова тема   Відповісти