Мадагаскар 2: Втеча до Африки / Madagascar: Escape 2 Africa (2008) 1080p Ukr/Eng | Sub-Ukr/Eng

Нові коментарі

Нова тема   Відповісти
Автор Повідомлення
Kuzmenko 
Відео Гуртом - команда HD
Відео Гуртом - команда HD


З нами з: 02.02.10
Востаннє: 21.08.17
Повідомлень: 144

2011-01-14 02:10  
Мадагаскар 2: Втеча до Африки / Madagascar: Escape 2 Africa (2008) 1080p Ukr/Eng | Sub-Ukr/Eng



Жанр: комедія, пригодницький, сімейний
Країна: США



Кіностудія / кінокомпанія: DreamWorks SKG
Режисер: Том МакГрат, Ерік Дарнелл
Сюжет:
Повне небезпек життя на Мадагаскарі не виправдало очікувань тварин, які звикли до комфорту Нью-Йоркського зоопарку, - лева Алекса, зебри Марті, жирафа Мелмана й бегемотихи Глорії - і друзі вирішують утекти з острова. По випадковості, всю компанію заносить в Африку, де Алекс зустрічає свою родину, з якою він був розлучений у дитинстві. Зненацька для себе Алекс розуміє, що після життя в зоопарку в нього набагато менше спільного з родичами, ніж йому хотілося б...


Тривалість: 01:29:24
Якість: 1080p
Відео:
кодек:
розмір кадру: 1920 х 1080
бітрейт: 9861 кб/с

Аудіо # 1:
мова: українська
переклад: професійний дубльований
кодек: 5.1
бітрейт: 640 кб/с

Аудіо # 2:
мова: англійська
переклад: оригінал
кодек:
бітрейт: 1510 кб/с

Аудіо # 3:
мова: англійська
переклад: коментарі режисера
кодек: 2.0
бітрейт: 224 кб/с

Переклад і озвучення виконано:


Субтитри:
мова: українська
тип: надписи

Субтитри:
мова: українська
тип: програмні (м'які)

Субтитри:
мова: англійська
тип: програмні (м'які)

Субтитри:
мова: англійська
тип: коментарі режисера
Скріншоти

Info

General
Complete name : H:\Downloads\Релізи\[Hurtom.com]\Madagascar- Escape 2 Africa (2008) 1080p Ukr,Eng.Sub-Ukr,Eng[Hurtom].
Format :
File size : 7.64 GiB
Duration : 1h 29mn
Overall bit rate : 12.2 Mbps
Movie name : Madagascar: Escape 2 Africa (2008) 1080p Ukr,Eng.Sub-Ukr,Eng[Hurtom]
Encoded date : UTC 2011-01-13 17:13:33
Writing application : mkvmerge v4.3.0 ('Escape from the Island') збірка від Sep 5 2010 10:30:51
Writing library : libebml v1.0.0 + libmatroska v1.0.0
Cover : Yes / Yes / Yes

Video
ID : 1
Format : AVC
Format/Info : Advanced Video Codec
Format profile : [email protected]
Format settings, CABAC : Yes
Format settings, ReFrames : 4 frames
Format settings, GOP : N=1
Muxing mode : Header stripping
Codec ID : V_MPEG4/ISO/AVC
Duration : 1h 29mn
Bit rate : 9 861 Kbps
Width : 1 920 pixels
Height : 1 080 pixels
Display aspect ratio : 16:9
Frame rate : 23.976 fps
Color space : YUV
Chroma subsampling : 4:2:0
Bit depth : 8 bits
Scan type : Progressive
Bits/(Pixel*Frame) : 0.198
Stream size : 6.00 GiB (79%)
Title : Madagascar: Escape 2 Africa (2008) 1080p Ukr,Eng.Sub-Ukr,Eng[Hurtom]
Writing library : core 66 r1101M b69548a
Encoding settings : cabac=1 / ref=4 / deblock=1:-3:-3 / analyse=0x3:0x133 / me=umh / subme=9 / psy_rd=0.8:0.0 / mixed_ref=1 / me_range=24 / chroma_me=1 / trellis=0 / 8x8dct=1 / cqm=0 / deadzone=21,11 / chroma_qp_offset=-2 / threads=6 / nr=0 / decimate=1 / mbaff=0 / bframes=6 / b_pyramid=1 / b_adapt=2 / b_bias=0 / direct=1 / wpredb=1 / keyint=250 / keyint_min=25 / scenecut=40(pre) / rc=2pass / bitrate=9861 / ratetol=1.0 / qcomp=0.60 / qpmin=8 / qpmax=23 / qpstep=4 / cplxblur=20.0 / qblur=0.5 / vbv_maxrate=50000 / vbv_bufsize=50000 / ip_ratio=1.40 / pb_ratio=1.30 / aq=1:0.80
Language : English

Audio #1
ID : 2
Format : AC-3
Format/Info : Audio Coding 3
Mode extension : CM (complete main)
Muxing mode : Header stripping
Codec ID : A_AC3
Duration : 1h 29mn
Bit rate mode : Constant
Bit rate : 640 Kbps
Channel(s) : 6 channels
Channel positions : Front: L C R, Side: L R, LFE
Sampling rate : 48.0 KHz
Bit depth : 16 bits
Stream size : 409 MiB (5%)
Title : 5.1 @ 640bps Українська - дубляж
Language : Ukrainian

Audio #2
ID : 3
Format :
Format/Info : Digital Theater Systems
Muxing mode : Header stripping
Codec ID : A_DTS
Duration : 1h 29mn
Bit rate mode : Constant
Bit rate : 1 510 Kbps
Channel(s) : 6 channels
Channel positions : Front: L C R, Side: L R, LFE
Sampling rate : 48.0 KHz
Bit depth : 24 bits
Stream size : 965 MiB (12%)
Title : 5.1 @ 1510 kbps Англійська - оригінал
Language : English

Audio #3
ID : 4
Format : AC-3
Format/Info : Audio Coding 3
Mode extension : CM (complete main)
Muxing mode : Header stripping
Codec ID : A_AC3
Duration : 1h 29mn
Bit rate mode : Constant
Bit rate : 224 Kbps
Channel(s) : 2 channels
Channel positions : Front: L R
Sampling rate : 48.0 KHz
Bit depth : 16 bits
Stream size : 143 MiB (2%)
Title : 2.0 @ 224 kbps Англійска - коментарі режисера
Language : English

Text #1
ID : 5
Format : UTF-8
Codec ID : S_TEXT/UTF8
Codec ID/Info : UTF-8 Plain Text
Title : надписи
Language : Ukrainian

Text #2
ID : 6
Format : UTF-8
Codec ID : S_TEXT/UTF8
Codec ID/Info : UTF-8 Plain Text
Language : Ukrainian

Text #3
ID : 7
Format : ASS
Codec ID : S_TEXT/ASS
Codec ID/Info : Advanced Sub Station Alpha
Language : English
Джерело:
Особиста оцінка: 10 - без зайвих вагань рекомендую всім!


 Трекер:    Зареєстрований   

Завантажити / скачати мультфільм українською



відео для новачків



 Зареєстрований:   2011-01-14 02:10
 Розмір:   7.64 GB 
 Оцінка мультфільму:   9.9/10 (Голосів: 17)
   
Ваш часовий пояс: GMT + 2 Години

Нова тема   Відповісти