Мінлива хмарність, часом фрикадельки / Cloudy with a Chance of Meatballs (2009) 720p 2xUkr/Eng | Sub Eng

Нові коментарі

Нова тема   Відповісти
Автор Повідомлення
braveboy 
Відео Гуртом - команда HD
Відео Гуртом - команда HD


З нами з: 15.06.10
Востаннє: 13.08.17
Повідомлень: 949

2011-01-12 16:10  

Мінлива хмарність, часом фрикадельки / Cloudy with a Chance of Meatballs (2009)
720p 2xUkr/Eng | Sub Eng


Мінлива хмарність, часом фрикадельки / Cloudy with a Chance of Meatballs (2009) 720p 2xUkr/Eng | Sub Eng

«Prepare to get served»

Жанр: анімація, сімейний, комедія
Країна: США





Кіностудія / кінокомпанія: Sony Pictures Animation
Режисер: Кріс Міллер, Філ Лорд
Актори: Білл Хейдер, Анна Феріс, Джеймс Каан, Енді Семберг, Брюс Кемпбелл, Містер Ті, Боббі Дж. Томпсон, Бенджамін Бретт, Ніл Патрік Харріс, Ел Рокер

Сюжет:
Головний герой мультфільму - дивний учений Флінт Локвуд, який завжди хотів винайти щось таке, що зробить його рідне містечко щасливим. І ось, у нього вийшло! Їжі тепер вистачає всім, і вона просто падає з неба, створюючи нові краєвиди навколо: можна милуватися заходом з мальовничих пагорбів з фруктового желе. Але іноді смачні опади у вигляді фрикадельок можуть перетворитися на справжнє торнадо з апетитних, але вже небезпечних спагеті! Геніальному вченому і його друзям належить виправити стан справ в ситому містечку.


Тривалість: 01:29:53
Якість: 720p
Відео:
кодек:
розмір кадру: 1280 x 544
бітрейт: 4790 кб/с

Аудіо # 1:
мова: українська
переклад: професійний дубльований
кодек: 5.1
бітрейт: 640 кб/с

Аудіо # 2:
мова: українська
переклад: двоголосий закадровий
кодек: 2.0
бітрейт: 192 кб/с

Аудіо # 3:
мова: англійська
переклад: оригінал
кодек: 5.1
бітрейт: 1536 кб/с


Ролі озвучили:
Андрій Федінчик і Катерина Буцька

Субтитри:
мова: англійська
тип: програмні (м'які)
формат: *.srt

Оригінальні розділи:
Збережено
Подяка за доріжку від нового каналу Gelios
720p by braveboy
Info
Код:
Video
ID                                       : 1
Format                                   : AVC
Format/Info                              : Advanced Video Codec
Format profile                           : [email protected]
Format settings, CABAC                   : Yes
Format settings, ReFrames                : 8 frames
Codec ID                                 : V_MPEG4/ISO/AVC
Duration                                 : 1h 29mn
Bit rate                                 : 4 790 Kbps
Width                                    : 1 280 pixels
Height                                   : 544 pixels
Display aspect ratio                     : 2.35:1
Frame rate mode                          : Constant
Frame rate                               : 23.976 fps
Color space                              : YUV
Chroma subsampling                       : 4:2:0
Bit depth                                : 8 bits
Scan type                                : Progressive
Bits/(Pixel*Frame)                       : 0.287
Stream size                              : 2.92 GiB (65%)
Title                                    : Cloudy with a Chance of Meatballs (2009) 720p by braveboy
Writing library                          : core 125 r2208 d9d2288
Encoding settings                        : cabac=1 / ref=8 / deblock=1:-3:-3 / analyse=0x3:0x133 / me=umh / subme=9 / psy=1 / psy_rd=0.80:0.00 / mixed_ref=1 / me_range=32 / chroma_me=1 / trellis=1 / 8x8dct=1 / cqm=0 / deadzone=21,11 / fast_pskip=0 / chroma_qp_offset=-2 / threads=6 / lookahead_threads=1 / sliced_threads=0 / nr=0 / decimate=0 / interlaced=0 / bluray_compat=0 / constrained_intra=0 / bframes=7 / b_pyramid=2 / b_adapt=2 / b_bias=0 / direct=1 / weightb=1 / open_gop=0 / weightp=2 / keyint=240 / keyint_min=24 / scenecut=40 / intra_refresh=0 / rc=2pass / mbtree=0 / bitrate=4790 / ratetol=1.0 / qcomp=0.60 / qpmin=10 / qpmax=51 / qpstep=4 / cplxblur=20.0 / qblur=0.5 / ip_ratio=1.40 / pb_ratio=1.30 / aq=1:1.00
Default                                  : Yes
Forced                                   : No

Audio #1
ID                                       : 2
Format                                   : AC-3
Format/Info                              : Audio Coding 3
Mode extension                           : CM (complete main)
Format settings, Endianness              : Big
Codec ID                                 : A_AC3
Duration                                 : 1h 29mn
Bit rate mode                            : Constant
Bit rate                                 : 640 Kbps
Channel(s)                               : 6 channels
Channel positions                        : Front: L C R, Side: L R, LFE
Sampling rate                            : 48.0 KHz
Bit depth                                : 16 bits
Compression mode                         : Lossy
Stream size                              : 411 MiB (9%)
Title                                    : 5.1 @ 640 kbps [Blu-ray CEE]
Language                                 : Ukrainian
Default                                  : Yes
Forced                                   : No

Audio #2
ID                                       : 3
Format                                   : AC-3
Format/Info                              : Audio Coding 3
Mode extension                           : CM (complete main)
Format settings, Endianness              : Big
Codec ID                                 : A_AC3
Duration                                 : 1h 29mn
Bit rate mode                            : Constant
Bit rate                                 : 192 Kbps
Channel(s)                               : 2 channels
Channel positions                        : Front: L R
Sampling rate                            : 48.0 KHz
Bit depth                                : 16 bits
Compression mode                         : Lossy
Stream size                              : 123 MiB (3%)
Title                                    : 2.0 @ 192 kbps [Novy]
Language                                 : Ukrainian
Default                                  : No
Forced                                   : No

Audio #3
ID                                       : 4
Format                                   :
Format/Info                              : Digital Theater Systems
Mode                                     : 16
Format settings, Endianness              : Big
Codec ID                                 : A_DTS
Duration                                 : 1h 29mn
Bit rate mode                            : Constant
Bit rate                                 : 1 509 Kbps
Channel(s)                               : 6 channels
Channel positions                        : Front: L C R, Side: L R, LFE
Sampling rate                            : 48.0 KHz
Bit depth                                : 24 bits
Compression mode                         : Lossy
Stream size                              : 970 MiB (21%)
Title                                    : 5.1 - 1510 kbps
Language                                 : English
Default                                  : No
Forced                                   : No

Text
ID                                       : 5
Format                                   : UTF-8
Codec ID                                 : S_TEXT/UTF8
Codec ID/Info                            : UTF-8 Plain Text
Title                                    : Full
Language                                 : English
Default                                  : No
Forced                                   : No

Menu
00:00:00.000                             : en:00:00:00.000
00:04:47.621                             : en:00:04:47.621
00:08:56.578                             : en:00:08:56.578
00:14:33.164                             : en:00:14:33.164
00:20:30.229                             : en:00:20:30.229
00:24:25.589                             : en:00:24:25.589
00:30:43.175                             : en:00:30:43.175
00:36:29.604                             : en:00:36:29.604
00:42:50.109                             : en:00:42:50.109
00:46:36.794                             : en:00:46:36.794
00:52:43.827                             : en:00:52:43.827
00:55:07.429                             : en:00:55:07.429
01:00:42.764                             : en:01:00:42.764
01:05:43.398                             : en:01:05:43.398
01:13:03.754                             : en:01:13:03.754
01:17:45.369                             : en:01:17:45.369

Скріншоти:
Особиста оцінка: 10 - без зайвих вагань рекомендую всім!


 Трекер:    Зареєстрований   

Завантажити / скачати мультфільм українською



відео для новачків



 Зареєстрований:   2013-09-08 00:52
 Розмір:   4.48 GB 
 Оцінка мультфільму:   9.6/10 (Голосів: 35)
   
braveboy 
Відео Гуртом - команда HD
Відео Гуртом - команда HD


З нами з: 15.06.10
Востаннє: 13.08.17
Повідомлень: 949

2013-09-08 00:53  
додано доріжку від нового каналу
AnonyM2014 
Новенький


З нами з: 13.08.13
Востаннє: 09.09.13
Повідомлень: 1

2013-09-08 17:10  
дуже гарний мультiк. Велике дякую braveboy за чудовий рiп.
ExtremeCat 
Свій


З нами з: 12.10.10
Востаннє: 23.08.17
Повідомлень: 120

2014-02-07 00:33  
а буде 720Р-міні ?
braveboy 
Відео Гуртом - команда HD
Відео Гуртом - команда HD


З нами з: 15.06.10
Востаннє: 13.08.17
Повідомлень: 949

2014-02-07 03:41  
ExtremeCat написано:
а буде 720Р-міні ?

не буде

ExtremeCat 
Свій


З нами з: 12.10.10
Востаннє: 23.08.17
Повідомлень: 120

2014-02-07 19:00  
жаль Sad (1)
braveboy 
Відео Гуртом - команда HD
Відео Гуртом - команда HD


З нами з: 15.06.10
Востаннє: 13.08.17
Повідомлень: 949

2014-02-08 03:44  
ExtremeCat написано:
жаль

а чим тебе 720р не влаштовує?

ExtremeCat 
Свій


З нами з: 12.10.10
Востаннє: 23.08.17
Повідомлень: 120

2014-02-08 12:01  
та для колекції хочеться 720р-міні бо все ж таки розміри трохи різні виходять 
NeetScrool 
Відео Гуртом - фільмокрай
Відео Гуртом - фільмокрай


З нами з: 10.01.13
Востаннє: 23.08.17
Повідомлень: 2613

2014-02-08 12:07  
Буде міні від мене. Але не в найближчі дні. Готуюся до ріпи Перл Гарбору.
ExtremeCat 
Свій


З нами з: 12.10.10
Востаннє: 23.08.17
Повідомлень: 120

2014-02-08 16:23  
ясно, це дуже хороша новина!!!!!! буду з нетерпінням чекати!!!!
ExtremeCat 
Свій


З нами з: 12.10.10
Востаннє: 23.08.17
Повідомлень: 120

2014-02-28 13:26  
Шановний NeetScrool чи плануєте ще, робити 720p-mini - до першої та другої частини ?
NeetScrool 
Відео Гуртом - фільмокрай
Відео Гуртом - фільмокрай


З нами з: 10.01.13
Востаннє: 23.08.17
Повідомлень: 2613

2014-03-04 23:20  
ExtremeCat
Планую.

ExtremeCat 
Свій


З нами з: 12.10.10
Востаннє: 23.08.17
Повідомлень: 120

2014-04-11 18:58  
і як там ваші плани ?)
BGD-2012 
Свій


З нами з: 06.05.12
Востаннє: 05.08.17
Повідомлень: 77

2015-12-12 20:08  
Чудова ідея та сюжет. Досить незвично. Качайте рідною мовою!
Ваш часовий пояс: GMT + 2 Години

Нова тема   Відповісти