Піноккіо / Pinocchio (1940) 1080p Ukr/Eng | Sub Ukr/Eng

Нові коментарі

Нова тема   Відповісти
Автор Повідомлення
TPEM 
Відео Гуртом - фільмокрай
Відео Гуртом - фільмокрай


З нами з: 30.01.09
Востаннє: 05.03.21
Повідомлень: 414

2011-01-06 08:31  
Піноккіо / Pinocchio (1940) 1080p Ukr/Eng | Sub Ukr/Eng




Жанр: анімація, казка
Країна: США



Кіностудія / кінокомпанія: The Walt Disney Company
Режисер: Хемілтон Ласкі, Бен Шарпстін, Девід Хенд

Сюжет: Старий майстер Джепетто - самотній веселий чоловік зробив з дерева ляльку-маріонетку і назвав її Піноккіо. Коли падала зоря він загадав бажання, щоб Піноккіо став справжнім хлопчиком. Блакитна фея поставила умову - щоб стати справжнім, герой має проявити свою хоробрість і чесність у добрих справах. А ще вона призначила йому совість в обличчі малого цвіркуна для того ,щоб той наглядав за Пінокіо. Ось вони відправляються назустріч незвичайним пригодам...

Нагороди: Оскар, 1941 рік
Переможець (2):
* Краща пісня — «When You Wish Upon a Star»
* Кращий оригінальний саундтрек


Тривалість: 01:27:44
Якість: 1080р
Відео:
кодек:
розмір кадру: 1440 х 1080
бітрейт: 5 597 кб/с

Аудіо # 1:
мова: українська
переклад: двоголосий закадровий
кодек: 5.1
бітрейт: 448 кб/с

Аудіо # 2:
мова: англійська
переклад: оригінал
кодек: 5.1
бітрейт: 448 кб/с

Переклад і озвучення виконано:
спеціально для Hurtom.com
Mister rock (Олексій Петренко)
МуЗа (Марина Наконечна)

Субтитри:

мова: українська
тип: програмні (м'які)
формат: *.srt

Субтитри:
мова: англійська
тип: програмні (м'які)
формат: *.srt
Info
General
Unique ID : 174154574268965258982302746659666531050 (0x8304F371B2FA6F4F922698AC5E3412EA)
Complete name : E:\МУЛЬТФІЛЬМИ\Пінокіо.
Format :
Format version : Version 2
File size : 3.98 GiB
Duration : 1h 27mn
Overall bit rate : 6 494 Kbps
Movie name : Pinocchio (1940) 1080p - Release by Project Video Hurtom
Encoded date : UTC 2011-01-06 06:17:34
Writing application : v4.3.0 ('Escape from the Island') збірка від Sep 5 2010 10:30:51
Writing library : libebml v1.0.0 + v1.0.0

Video
ID : 1
Format : AVC
Format/Info : Advanced Video Codec
Format profile : [email protected]
Format settings, CABAC : Yes
Format settings, ReFrames : 4 frames
Muxing mode : Header stripping
Codec ID : V_MPEG4/ISO/AVC
Duration : 1h 27mn
Bit rate : 5 597 Kbps
Width : 1 440 pixels
Height : 1 080 pixels
Display aspect ratio : 4:3
Frame rate mode : Constant
Frame rate : 23.976 fps
Color space : YUV
Chroma subsampling : 4:2:0
Bit depth : 8 bits
Scan type : Progressive
Bits/(Pixel*Frame) : 0.150
Stream size : 3.35 GiB (84%)
Title : Pinocchio (1940) 1080p
Writing library : core 66 r1116 7ddb2c7
Encoding settings : cabac=1 / ref=4 / deblock=1:0:0 / analyse=0x3:0x133 / me=umh / subme=7 / psy_rd=1.0:0.0 / mixed_ref=1 / me_range=16 / chroma_me=1 / trellis=1 / 8x8dct=1 / cqm=0 / deadzone=21,11 / chroma_qp_offset=-2 / threads=6 / nr=0 / decimate=1 / mbaff=0 / bframes=3 / b_pyramid=1 / b_adapt=1 / b_bias=0 / direct=1 / wpredb=1 / keyint=250 / keyint_min=25 / scenecut=40(pre) / rc=2pass / bitrate=5597 / ratetol=1.0 / qcomp=0.60 / qpmin=10 / qpmax=51 / qpstep=4 / cplxblur=20.0 / qblur=0.5 / ip_ratio=1.40 / pb_ratio=1.30 / aq=1:1.00
Language : English
Default : Yes
Forced : No

Audio #1
ID : 2
Format : AC-3
Format/Info : Audio Coding 3
Mode extension : CM (complete main)
Format settings, Endianness : Big
Muxing mode : Header stripping
Codec ID : A_AC3
Duration : 1h 27mn
Bit rate mode : Constant
Bit rate : 448 Kbps
Channel(s) : 6 channels
Channel positions : Front: L C R, Side: L R, LFE
Sampling rate : 48.0 KHz
Compression mode : Lossy
Stream size : 281 MiB (7%)
Title : [Mister rock, МуЗа] 5.1 @448 kbps
Language : Ukrainian
Default : Yes
Forced : No

Audio #2
ID : 3
Format : AC-3
Format/Info : Audio Coding 3
Mode extension : CM (complete main)
Format settings, Endianness : Big
Muxing mode : Header stripping
Codec ID : A_AC3
Duration : 1h 27mn
Bit rate mode : Constant
Bit rate : 448 Kbps
Channel(s) : 6 channels
Channel positions : Front: L C R, Side: L R, LFE
Sampling rate : 48.0 KHz
Compression mode : Lossy
Stream size : 281 MiB (7%)
Title : [Original] 5.1 @448 kbps
Default : No
Forced : No

Text #1
ID : 4
Format : UTF-8
Codec ID : S_TEXT/UTF8
Codec ID/Info : UTF-8 Plain Text
Language : Ukrainian
Default : No
Forced : No

Text #2
ID : 5
Format : UTF-8
Codec ID : S_TEXT/UTF8
Codec ID/Info : UTF-8 Plain Text
Language : English
Default : No
Forced : No
[size=9]
Скріншоти







Джерело:
Особиста оцінка: 10 - без зайвих вагань рекомендую всім!


Золотий реліз (завантажене не впливає на рейтинг)
 Трекер:    Зареєстрований   

Завантажити / скачати мультфільм українською



відео для новачків



 Зареєстрований:   2011-01-06 08:31
 Розмір:   3.98 GB 
 Оцінка мультфільму:   9.7/10 (Голосів: 43)
   
Інші релізи
   Піноккіо / Pinocchio (1940) 1080p H.265 3хUkr/Eng | Sub Ukr/Eng -Star-Lord-  5 / 0   5.4 GB   2020-07-10 23:07 
   Піноккіо / Pinocchio (1940) AVC 3хUkr/Eng | Sub Ukr/Eng Arsenfpu  9 / 0   2.16 GB   2018-11-26 11:10 
   Піноккіо / Pinocchio (1940) Remux 1080p 3xUkr/2xEng | Sub Ukr/Eng urij546724  3 / 0   20.16 GB   2018-08-22 06:12 
   Піноккіо / Pinocchio (1940) 2хUkr/Eng | Sub Ukr/Eng MutuLI  7 / 0   1.85 GB   2011-12-23 17:18 
   Пінокіо / Pinocchio (1940) Ukr/Eng Mister rock  7 / 0   1.34 GB   2011-01-05 11:40 
Konfucius 
Управління
Управління


З нами з: 30.09.07
Востаннє: 07.03.21
Повідомлень: 5219

2011-01-06 08:54  
Чудово, особливе дякую за DVD5.
TPEM 
Відео Гуртом - фільмокрай
Відео Гуртом - фільмокрай


З нами з: 30.01.09
Востаннє: 05.03.21
Повідомлень: 414

2011-01-06 09:03  
Будь-ласка Happy

Думаю, всім теж такий розмір чудово підійде.
Можна і на головну додати посилання.

Konfucius 
Управління
Управління


З нами з: 30.09.07
Востаннє: 07.03.21
Повідомлень: 5219

2011-01-06 09:09  
Додав.
MutuLI 
Відео Гуртом - фільмокрай
Відео Гуртом - фільмокрай


З нами з: 08.03.09
Востаннє: 07.03.21
Повідомлень: 2107

2011-01-06 09:23  
Якщо вірити вікіпедії , то правильно буде "Піноккіо" з двома "к".
TPEM 
Відео Гуртом - фільмокрай
Відео Гуртом - фільмокрай


З нами з: 30.01.09
Востаннє: 05.03.21
Повідомлень: 414

2011-01-06 09:54  
MutuLI написано:
"Піноккіо" з двома "к"

Хай так і буде Wink (1)

Mister rock 
Відео Гуртом - озвучення
Відео Гуртом - озвучення


З нами з: 22.07.10
Востаннє: 03.03.21
Повідомлень: 369

2011-01-06 13:11  
Дякую за 5.1!!!!!!!!!!! Я на тому не знаюся як робити все таке...
А Піноккіо чи Пінокіо то не так важливо я думаю.... Вікіпедія - це теж не панацея))) Там теж місцями можна зустріти абсурд))

Ще раз дякую всім гуртомівцям за допомогу)))

rooster 
Відео Гуртом - фільмокрай
Відео Гуртом - фільмокрай


З нами з: 23.04.09
Востаннє: 27.02.21
Повідомлень: 1326

2011-02-11 11:04  
Доріжка 5.1 погано відсинхронізована. Спостерігається відлуння, а ближче до середини воно посилюється. Доведеться собі переробляти.
Hurtomivets 
Свій


З нами з: 09.01.10
Востаннє: 07.03.21
Повідомлень: 8721

2011-02-11 12:46  
rooster написано:
Доріжка 5.1 погано відсинхронізована. Спостерігається відлуння, а ближче до середини воно посилюється. Доведеться собі переробляти.


Спробуй з цієї роздачі https://toloka.to/t20055
там нижче є лінк на 5.1

rooster 
Відео Гуртом - фільмокрай
Відео Гуртом - фільмокрай


З нами з: 23.04.09
Востаннє: 27.02.21
Повідомлень: 1326

2011-02-11 16:21  
w2958l написано:
Спробуй з цієї роздачі https://toloka.to/t20055

там нижче є лінк на 5.1

Все вирішилося. В мене на компі в черговий раз кодек хракнувся.

TPEM 
Відео Гуртом - фільмокрай
Відео Гуртом - фільмокрай


З нами з: 30.01.09
Востаннє: 05.03.21
Повідомлень: 414

2011-02-28 22:08  
rooster написано:
Доріжка 5.1 погано відсинхронізована. Спостерігається відлуння, а ближче до середини воно посилюється.

rooster написано:
Все вирішилося. В мене на компі в черговий раз кодек хракнувся.

Отже, не спішіть із висновками... Я не штампую релізи, а коли вже викладаю, то сам знаю що Wink (1)

sovist 
Частий відвідувач


З нами з: 11.02.11
Востаннє: 07.03.21
Повідомлень: 29

2011-04-07 21:00  
Дякую за мультик! Цікаво дізнатися за переклад і озвучення, дуже сподобався. Хто ці люди О.Петренко і М.Наконечна?
Mister rock 
Відео Гуртом - озвучення
Відео Гуртом - озвучення


З нами з: 22.07.10
Востаннє: 03.03.21
Повідомлень: 369

2011-04-07 23:54  
sovist написано:
Хто ці люди О.Петренко і М.Наконечна?

Майбутні чоловік і дружина))) А зараз україномовні студенти))) що шукають роботу))))

А що???))))

sovist 
Частий відвідувач


З нами з: 11.02.11
Востаннє: 07.03.21
Повідомлень: 29

2011-04-08 09:21  
Дуже гарна, професійна робота. Молодці!
Mister rock 
Відео Гуртом - озвучення
Відео Гуртом - озвучення


З нами з: 22.07.10
Востаннє: 03.03.21
Повідомлень: 369

2011-04-08 11:40  
sovist написано:
Дуже гарна, професійна робота. Молодці!

На те й було розраховано старання))) Дякуємо!! Думаю дітки будуть в захваті))) і ваші і наші!!!!!

Просто_Льолік 
Новенький


З нами з: 11.10.10
Востаннє: 02.03.21
Повідомлень: 8

2011-10-08 18:58  
Агов, люди! Дайте скачати, будь ласка!
Просто_Льолік 
Новенький


З нами з: 11.10.10
Востаннє: 02.03.21
Повідомлень: 8

2011-10-09 08:30  
дякую!
Separated 
Новенький


З нами з: 07.05.15
Востаннє: 12.10.16
Повідомлень: 3

2016-08-31 15:55  
Дякую за HD роздачу. Сьогодні малим вмикатиму. Щиро дякую!
Ваш часовий пояс: GMT + 2 Години

Нова тема   Відповісти