Черепашки ніндзя / TMNT (2007) Remux 1080p Ukr/Eng | Sub-Eng

Нові коментарі

Нова тема   Відповісти
Автор Повідомлення
Kuzmenko 
Відео Гуртом - команда HD
Відео Гуртом - команда HD


З нами з: 02.02.10
Востаннє: 12.08.17
Повідомлень: 144

2010-12-24 19:33  
Черепашки ніндзя / TMNT (2007) Remux 1080p Ukr/Eng | Sub-Eng



Жанр: бойовик, дитячий, драма, комедія, фантастика
Країна: США, Гонконг



Кіностудія / кінокомпанія: Warner Bros. Pictures, The Weinstein Company, Imagi Studios
Режисер: Кевін Мунро
Ролі озвучують: Кріс Еванс, Сара Мішель Геллар, Мако, Кевін Сміт, Патрік Стюарт, Зії Чжан, Лоуренс Фішборн, Джеймс Арнольд Тейлор, Нолан Норт, Мікі Келлі, Мітчел Вітфілд

Сюжет:
Після перемоги над Шреддером команда черепашок ніндзя розпадається через те, що невизнаний лідер команди Леонардо покидає команду і вирушає у джунглі. А черепашки вже не боряться з мутантами і монстрами, а просто займаються своїми справами, крім Рафаеля. Він удень спить, а вночі бореться з злочинністю під іменем "Нічний Всевидячий". Але черепашки невдовзі дізнаються, що існує давнє зло, якому уже 3000 років, і це зло... клієнт Ейпріл Максиміліан Вінтерс, який отримав бессмертя через чарівні зірки Кікона. Але насправді він хоче зібрати 13 монстрів, щоб знову стати смертним. Але чи возз'єднаються черепашки? Чи зрозуміють, що Вінтерс їм не ворог до того, як він стане бессмертним ще на 3000 років?..


Тривалість: 01:26:50
Якість: Remux 1080p
Відео:
кодек: VC-1
розмір кадру: 1920 х 1080
бітрейт: 17.1 Мб/с

Аудіо # 1:
мова: українська
переклад: багатоголосий закадровий
кодек: 5.1
бітрейт: 448 кб/с

Аудіо # 2:
мова: англійська
переклад: оригінал
кодек: 5.1 HD
бітрейт: 640-3111 кб/с

Аудіо # 3:
мова: англійська
переклад: коментарі
кодек: 2.0
бітрейт: 192 кб/с

Переклад і озвучення виконано:
Так Треба Продакшн, на замовлення

Субтитри:
мова: англійська
тип: програмні (м'які)

Субтитри:
мова: англійська - коментарі режисера
тип: програмні (м'які)
Скріншоти

Info

General
ID : 1
Complete name : H:\Downloads\Релізи\[Hurtom.com]\TMNT (2007) Remux 1080p VC-1 Ukr,Eng. Sub-Eng.m2ts
Format : BDAV
Format/Info : Blu-ray Video
File size : 11.6 GiB
Duration : 1h 26mn
Overall bit rate : 19.2 Mbps
Maximum Overall bit rate : 35.5 Mbps

Video
ID : 4113 (0x1011)
Menu ID : 1 (0x1)
Format : VC-1
Format profile : [email protected]
Codec ID : 234
Duration : 1h 26mn
Bit rate : 17.1 Mbps
Width : 1 920 pixels
Height : 1 080 pixels
Display aspect ratio : 16:9
Frame rate : 23.976 fps
Chroma subsampling : 4:2:0
Bit depth : 8 bits
Scan type : Progressive
Bits/(Pixel*Frame) : 0.344
Stream size : 10.4 GiB (89%)

Audio #1
ID : 4352 (0x1100)
Menu ID : 1 (0x1)
Format : AC-3
Format/Info : Audio Coding 3
Mode extension : CM (complete main)
Codec ID : 129
Duration : 1h 26mn
Bit rate mode : Constant
Bit rate : 448 Kbps
Channel(s) : 6 channels
Channel positions : Front: L C R, Side: L R, LFE
Sampling rate : 48.0 KHz
Bit depth : 16 bits
Stream size : 278 MiB (2%)
Language : Ukrainian

Audio #2
ID : 4353 (0x1101)
Menu ID : 1 (0x1)
Format : AC-3
Format/Info : Audio Coding 3
Format profile : TrueHD / Core
Mode extension : CM (complete main)
Muxing mode : Stream extension
Codec ID : 131
Duration : 1h 26mn
Bit rate mode : Variable / Constant
Bit rate : 640 Kbps
Maximum bit rate : 3 111 Kbps
Channel(s) : 6 channels
Channel positions : Front: L C R, Side: L R, LFE
Sampling rate : 48.0 KHz
Bit depth : 16 bits
Stream size : 398 MiB (3%)
Language : English

Audio #3
ID : 4354 (0x1102)
Menu ID : 1 (0x1)
Format : AC-3
Format/Info : Audio Coding 3
Format profile : Dolby Digital
Mode extension : CM (complete main)
Codec ID : 129
Duration : 1h 26mn
Bit rate mode : Constant
Bit rate : 192 Kbps
Channel(s) : 2 channels
Channel positions : Front: L R
Sampling rate : 48.0 KHz
Bit depth : 16 bits
Stream size : 119 MiB (1%)
Language : English

Text #1
ID : 4608 (0x1200)
Menu ID : 1 (0x1)
Format : PGS
Codec ID : 144

Text #2
ID : 4609 (0x1201)
Menu ID : 1 (0x1)
Format : PGS
Codec ID : 144
Джерело: &
Особиста оцінка: 10 - без зайвих вагань рекомендую всім!


Золотий реліз (завантажене не впливає на рейтинг)
 Трекер:    Зареєстрований   

Завантажити / скачати мультфільм українською



відео для новачків



 Зареєстрований:   2010-12-24 19:33
 Розмір:   11.63 GB 
 Оцінка мультфільму:   9.8/10 (Голосів: 12)
   
Інші релізи
   Черепашки ніндзя / TMNT (2007) 1080p Ukr/Eng | Sub Ukr/Eng igor911  5 / 0   4.55 GB   2013-04-05 12:10 
   Черепашки ніндзя / TMNT (2007) 720p Ukr/Eng | Sub Ukr/3xEng Zeus62  2 / 0   4.84 GB   2012-05-12 15:29 
   Черепашки ніндзя / TMNT (2007) MAKAPOHHIK  7 / 0   1.46 GB   2009-08-26 15:25 
   Черепашки ніндзя / TMNT (2007) 720p rostik_neo  2 / 0   2.73 GB   2009-08-21 00:50 
Оповідач 
Поважний учасник


З нами з: 13.03.11
Востаннє: 17.08.17
Повідомлень: 196

2011-04-23 20:54  
Невже нема професійного дубльованого??????
imonko 
Відео Гуртом - фільмокрай
Відео Гуртом - фільмокрай


З нами з: 20.07.08
Востаннє: 11.04.17
Повідомлень: 7308

2011-04-23 22:16  
є, десь під постером
nass43 
Новенький


З нами з: 24.02.12
Востаннє: 29.02.12
Повідомлень: 2

2012-02-25 14:50  
станьте хтось на роздачу будь-ласка))
igor911 
Відео Гуртом
Відео Гуртом


З нами з: 18.01.08
Востаннє: 18.08.17
Повідомлень: 7276

2013-03-31 21:31  
Виправте тривалість у описі: не 02:00:52, а 01:26:??.
Kuzmenko 
Відео Гуртом - команда HD
Відео Гуртом - команда HD


З нами з: 02.02.10
Востаннє: 12.08.17
Повідомлень: 144

2013-03-31 23:08  
Оповідач написано:
Тривалість: 01:26:50


Виправив.

Ваш часовий пояс: GMT + 2 Години

Нова тема   Відповісти