Крутий фараон (Круті фараони) / Hot Fuzz (2007) Remux 1080p Ukr/Eng | Sub Eng

Нові коментарі

Нова тема   Відповісти
Автор Повідомлення
Kuzmenko 
Відео Гуртом - команда HD
Відео Гуртом - команда HD


З нами з: 02.02.10
Востаннє: 10.07.18
Повідомлень: 144

2010-12-24 18:27  
Крутий фараон / Круті фараони / Hot Fuzz (2007) Remux 1080p Ukr/Eng | Sub Eng



Жанр: комедія, бойовик
Країна: Велика Британія, Франція



Кіностудія / кінокомпанія: Big Talk Productions, Ingenious Film Partners, Studio Canal, Universal Pictures, Working Title Films
Режисер: Едгар Райт
Актори: Саймон Пегг, Нік Фрост, Білл Бейлі, Тім Барлоу, Девід Бредлі

Сюжет:
Заздрісні поліцейські псують всіма способами життя своєму удачливому колезі – завдяки їх “старанням” його переводять з міста на сільську ділянку, де в напарники він отримує повного ідіота. Правда, це зовсім не заважає хлопцеві продовжувати розплутувати найгучніші злочини.


Тривалість: 02:00:52
Якість: Remux 1080p
Відео:
кодек: VC-1
розмір кадру: 1920 х 1080
бітрейт: 25,9 Мб/с

Аудіо # 1:
мова: українська
переклад: професійний дубльований
кодек: 5.1
бітрейт: 448 кб/с

Аудіо # 2:
мова: англійська
переклад: оригінал
кодек: 5.1
бітрейт: 1510 кб/с

Субтитри:
мова: англійська
тип: пререндерні
формат: pgs
Скріншоти

Info

General
ID : 1
Complete name : H:\Downloads\Релізи\[Hurtom.com]\Hot Fuzz (2007) Remux 1080p VC-1 Ukr,Eng. Sub-Eng.m2ts
Format : BDAV
Format/Info : Blu-ray Video
File size : 24.5 GiB
Duration : 2h 0mn
Overall bit rate : 29.0 Mbps
Maximum Overall bit rate : 35.5 Mbps

Video
ID : 4113 (0x1011)
Menu ID : 1 (0x1)
Format : VC-1
Format profile : [email protected]
Codec ID : 234
Duration : 2h 0mn
Bit rate : 25.9 Mbps
Width : 1 920 pixels
Height : 1 080 pixels
Display aspect ratio : 16:9
Frame rate : 23.976 fps
Chroma subsampling : 4:2:0
Bit depth : 8 bits
Scan type : Progressive
Bits/(Pixel*Frame) : 0.520
Stream size : 21.8 GiB (89%)

Audio #1
ID : 4352 (0x1100)
Menu ID : 1 (0x1)
Format : AC-3
Format/Info : Audio Coding 3
Mode extension : CM (complete main)
Codec ID : 129
Duration : 2h 0mn
Bit rate mode : Constant
Bit rate : 448 Kbps
Channel(s) : 6 channels
Channel positions : Front: L C R, Side: L R, LFE
Sampling rate : 48.0 KHz
Bit depth : 16 bits
Video delay : 900ms
Stream size : 387 MiB (2%)
Language : Ukrainian

Audio #2
ID : 4353 (0x1101)
Menu ID : 1 (0x1)
Format :
Format/Info : Digital Theater Systems
Codec ID : 130
Duration : 2h 0mn
Bit rate mode : Constant
Bit rate : 1 510 Kbps
Channel(s) : 6 channels
Channel positions : Front: L C R, Side: L R, LFE
Sampling rate : 48.0 KHz
Bit depth : 24 bits
Stream size : 1.27 GiB (5%)
Language : English

Text
ID : 4608 (0x1200)
Menu ID : 1 (0x1)
Format : PGS
Codec ID : 144
Language : English
Джерело: &
Особиста оцінка: 10 - без зайвих вагань рекомендую всім!


Золотий реліз (завантажене не впливає на рейтинг)
 Трекер:    Зареєстрований   

Завантажити / скачати фільм українською



відео для новачків



 Зареєстрований:   2010-12-24 18:27
 Розмір:   24.46 GB 
 Оцінка фільму:   9.8/10 (Голосів: 10)
   
Ваш часовий пояс: GMT + 2 Години

Нова тема   Відповісти